Welcome Guest ( Log In | Register )

 
Reply to this topicStart new topic
> Skald Of Morgoth - The Siege Of Angband (2017), Black Metal
post Feb 3 2019, 10:29:41
Post #1

Quaerite Lux in Tenebris
***********
Group: Металариец
Posts: 1,736
Releases: 34
From: Micsődőllő
On Forums: 8 years 7 months
Thanks: 2937 time(s)
Unknown


(IMG:https://metalarea.org/images/audiocovers/2019_Feb/acov_tid316973_thumb.jpg)

*Artist: Skald Of Morgoth
*Album: The Siege Of Angband
*Year: 2017
*Genre: Black Metal
*Country: Poland (IMG:https://metalarea.org/forum/style_images/flags/Poland.png)
*Format: mp3@CBR128kbps (IMG:https://metalarea.org/images/bit_low.gif)
*Size: 45MB

Tracklist:
01. The Birth of Gaurung 06:35
02. We Are Olog Hai! (The Troll's March) 07:05
03. The Siege of Angband 08:01
04. The Horde of Thangorodrim 07:12
05. Ancient Depths of Utumno 07:35
06. Heil Morgoth! 10:03
******************************
Total playing time: 46:31

(IMG:https://metalarea.org/images/youtube.png)

Technical info
(IMG:https://metalarea.org/images/spectrogram/2019_Feb/baa63994cea56fd9722817470871f93d.png)
Input File: 01. The Birth of Glaurung .mp3
Channels : 2
Sample Rate : 44100
Precision : 16-bit
Duration : 00:06:35.06 = 17422014 samples = 29629.3 CDDA sectors
File Size : 6.45M
Bit Rate : 131k
Sample Encoding: MPEG audio (layer I, II or III)
Comments :
Title=The Birth of Glaurung
Artist=Skald of Morgoth
Album=The Siege of Angband
Tracknumber=01
Year=2017
Genre=138



Register


Go to the top of the page
  Insert nick Quick quote
+Quote Post

Reply to this topicStart new topic
1 User(s) are reading this topic (1 Guests and 0 Anonymous Users)
0 Members:

 



- Lo-Fi Version Support form
Copyrights and abuse reports form
Time is now: 19th February 2019 - 19:04:36