Welcome Guest ( Log In | Register )

 
Reply to this topicStart new topic
> Born In Saturn - Born In Saturn (2019), Progressive Death Metal
post Feb 3 2019, 16:44:27
Post #1

Правь статус, ####!111
**************
Group: Металариец
Posts: 17,759
Releases: 12042
From: Г.Харьков
On Forums: 7 years 2 months
Thanks: 202194 time(s)
Unknown


(IMG:https://metalarea.org/images/audiocovers/2019_Feb/acov_tid316998_thumb.jpg)

*Artist: Born In Saturn
*Album: Born In Saturn
*Year: 2019
*Genre: Progressive Death Metal
*Country: Chile (IMG:https://metalarea.org/forum/style_images/flags/Chile.png)
*Format: mp3@CBR320kbps
*Size: 66MB

Tracklist:
1. Eridu 06:18
2. Enlil's Rave 02:34
3. Gilgamesh 04:26
4. Las 7 puertas de los 7 cerrojos 03:04
5. Djinns 03:36
6. Born in Saturn 03:02
7. Tristesses de la lune 04:08
8. Zin-Uru 03:30
******************************
Total playing time: 30:38




Extended info
GooglePlay Rip


Technical info
(IMG:https://metalarea.org/images/spectrogram/2019_Feb/2baf0ddd978d9220a1ef4d84c397a51b.png)
Input File: 03. Gilgamesh.mp3
Channels : 2
Sample Rate : 44100
Precision : 16-bit
Duration : 00:04:15.36 = 11261420 samples = 19152.1 CDDA sectors
File Size : 10.2M
Bit Rate : 320k
Sample Encoding: MPEG audio (layer I, II or III)
Comments :
Title=Gilgamesh
Artist=Born In Saturn
Album=Born in Saturn
Tracknumber=3
Year=2019



Register


Thanks:
Go to the top of the page
  Insert nick Quick quote
+Quote Post

Reply to this topicStart new topic
2 User(s) are reading this topic (2 Guests and 0 Anonymous Users)
0 Members:

 



- Lo-Fi Version Support form
Copyrights and abuse reports form
Time is now: 18th July 2019 - 12:17:53