Welcome Guest ( Log In | Register )

> Releases Upload / Добавление релизов

Добавить релиз тут / Click here to add release
Рекомендованные обменники / Recommended file shares

> Echoes Of Eternity - Ageless (2019), Progressive Metal (D5)
post Feb 4 2019, 17:00:05
Post #1

Serial Uploader
Group Icon
Group: V.I.P
Posts: 33,931
Releases: 32169
From: Lithuania
On Forums: 10 years 8 months
Thanks: 366991 time(s)
Lithuania


(IMG:https://metalarea.org/images/audiocovers/2019_Feb/acov_tid317057_thumb.jpg)

*Artist: Echoes Of Eternity
*Album: Ageless
*Year: 2019
*Genre: Progressive Metal
*Country: United States (IMG:https://metalarea.org/forum/style_images/flags/United%20States.png)
*Format: mp3@CBR320kbps
*Size: 94MB

Tracklist:
1. Smoke and Mirrors 04:40
2. Ageless 04:14
3. The Magician 05:00
4. Invocation to Venus 02:59
5. To the Sea 05:12
6. A Chance to Say Goodbye 04:22
7. Voices in a Dream (Demo Version) 04:23
8. Towers of Silence (Demo Version) 04:14
9. The Kingdom Within (Demo Version) 05:21
******************************
Total playing time: 40:25

(IMG:https://metalarea.org/images/myspace.png)


Technical info
(IMG:https://metalarea.org/images/spectrogram/2019_Feb/10be1244b412cf009a0dcceb9f03bd28.png)
Input File: 4 - Invocation to Venus.mp3
Channels : 2
Sample Rate : 44100
Precision : 16-bit
Duration : 00:02:59.92 = 7934252 samples = 13493.6 CDDA sectors
File Size : 7.36M
Bit Rate : 327k
Sample Encoding: MPEG audio (layer I, II or III)
Comments :
Title=Invocation to Venus
Artist=Echoes Of Eternity
Album=Ageless
Tracknumber=4
Year=2019
Genre=Progressive Metal
Discnumber=1



Register


Go to the top of the page
  Insert nick Quick quote
+Quote Post
 
Start new topic
Replies (1 - 8)
post Feb 4 2019, 18:27:48
Post #2

Аннигилятор пивА
Group Icon
Group: V.I.P
Posts: 52,313
Releases: 16538
From: Koenigsberg - TILZIT
On Forums: 12 years 8 months
Thanks: 358190 time(s)
Russian Federation


(IMG:style_emoticons/default/crazy.gif) это за 10 лет записали материал на 20 минут и добавив демку 2005 года типа полноформат получили? гениально


Thanks:
(1) AHBAnep,
Go to the top of the page
  Insert nick Quick quote
+Quote Post
post Feb 4 2019, 18:40:27
Post #3

Пять Литров
*****
Group: Металариец
Posts: 458
Releases: 0
From: Цимлянск
On Forums: 4 years 8 months
Thanks: 72 time(s)
Russian Federation


ссылки заблокированы....
Go to the top of the page
  Insert nick Quick quote
+Quote Post
post Feb 5 2019, 05:34:31
Post #4

Два кусочека кавбаски
***
Group: Завсегдатай
Posts: 243
Releases: 29
From: Колыбель металла
On Forums: 11 years 3 months
Thanks: 390 time(s)
Russian Federation


ну Вы то по альбому в год выпускаете, не меньше.
куда перезалить ?
Go to the top of the page
  Insert nick Quick quote
+Quote Post
post Feb 5 2019, 05:45:04
Post #5

Два кусочека кавбаски
***
Group: Завсегдатай
Posts: 243
Releases: 29
From: Колыбель металла
On Forums: 11 years 3 months
Thanks: 390 time(s)
Russian Federation


Register
Go to the top of the page
  Insert nick Quick quote
+Quote Post
post Feb 5 2019, 10:46:29
Post #6

Ледоруб
**************
Group: Металариец
Posts: 21,326
Releases: 0
From: Санкт-Петербург
On Forums: 9 years 5 months
Thanks: 6887 time(s)
Russian Federation


Сслыка на Майспейс? Как там в 2006-м?
Это тут девушка на вокале? Проверять лень.
Go to the top of the page
  Insert nick Quick quote
+Quote Post
post Feb 5 2019, 11:02:55
Post #7

Правь статус, ####!111
**************
Group: Металариец
Posts: 37,335
Releases: 547
On Forums: 9 years 8 months
Thanks: 28721 time(s)
Russian Federation


ЦИТАТА(6666666 @ Feb 5 2019, 13:46:29) *
Сслыка на Майспейс? Как там в 2006-м?
Это тут девушка на вокале? Проверять лень.


А сообщение состоящее более чем наполовину из пустых и бессодержательных вопросов - не лень было, значит. (IMG:style_emoticons/default/25.gif)
Go to the top of the page
  Insert nick Quick quote
+Quote Post
post Feb 9 2019, 20:34:16
Post #8

Мегаманьяк
***********
Group: Металариец
Posts: 1,954
Releases: 0
From: Мытищи
On Forums: 10 years 11 months
Thanks: 1094 time(s)
Russian Federation




Thanks:
(1) DenisKov,
Go to the top of the page
  Insert nick Quick quote
+Quote Post
post Feb 11 2019, 10:04:42
Post #9

Ъ
**************
Group: Металариец
Posts: 9,381
Releases: 9
On Forums: 10 years 1 month
Thanks: 1803 time(s)
Sweden


Хорошие достоинства у вокалистки (судя по фото с архивов), а вот остальное уныло.
Go to the top of the page
  Insert nick Quick quote
+Quote Post

Reply to this topicStart new topic
2 User(s) are reading this topic (2 Guests and 0 Anonymous Users)
0 Members:

 



- Lo-Fi Version Support form
Copyrights and abuse reports form
Time is now: 21st February 2019 - 10:45:53