Welcome Guest ( Log In | Register )

> Saddayah - Apopheny Of Life (2018), Progressive Death Metal
post Feb 5 2019, 19:21:31
Post #1

Аннигилятор пивА
Group Icon
Group: V.I.P
Posts: 52,356
Releases: 16556
From: Koenigsberg - TILZIT
On Forums: 13 years 1 month
Thanks: 361409 time(s)
Russian Federation


(IMG:https://metalarea.org/images/audiocovers/2019_Feb/acov_tid317112_thumb.jpg)

*Artist: Saddayah
*Album: Apopheny Of Life
*Year: 2018
*Genre: Progressive Death Metal
*Country: Romania (IMG:https://metalarea.org/forum/style_images/flags/Romania.png)
*Format: mp3@CBR320kbps
*Size: 73MB

Tracklist:
1. Apopheny of Life 04:47
2. Fire Above, Frost Below 03:16
3. Mouth of the Abyss 04:28
4. 8 04:08
5. King's Will 03:08
6. The Darkest Recess of the Human Mind 03:43
7. Born in Singularity 03:45
8. Carving in the Stone Flesh of God 04:49
******************************
Total playing time: 32:04




Extended info
SADDAYAH‘s music is rooted in traditional Death Metal, but the band’s serious technical abilities rose to a fresh, melodic and technical type of Death Metal with progressive and blackened influences.

Serban Mateescu - Bass
Theo Ionescu - Drums
Gabriel - Guitars (lead) See also: Akral Necrosis
Sorin Marincu - Guitars (rhythm)
Petrut Ilie - Vocals


Technical info
(IMG:https://metalarea.org/images/spectrogram/2019_Feb/abdcb23911a223db45da18805f9607a7.png)
Input File: 02. Fire Above, Frost Below.mp3
Channels : 2
Sample Rate : 44100
Precision : 16-bit
Duration : 00:03:16.35 = 8659035 samples = 14726.2 CDDA sectors
File Size : 7.85M
Bit Rate : 320k
Sample Encoding: MPEG audio (layer I, II or III)
Comments :
Title=Fire Above, Frost Below
Artist=Saddayah
Album=Apopheny Of Life
Tracknumber=2
Year=2018
Genre=Death Metal



Register


Thanks:
Go to the top of the page
  Insert nick Quick quote
+Quote Post
 
Start new topic
Replies (1 - 1)
post Feb 6 2019, 04:19:40
Post #2

Аннигилятор пивА
Group Icon
Group: V.I.P
Posts: 52,356
Releases: 16556
From: Koenigsberg - TILZIT
On Forums: 13 years 1 month
Thanks: 361409 time(s)
Russian Federation


mirror
Register
Go to the top of the page
  Insert nick Quick quote
+Quote Post

Reply to this topicStart new topic
2 User(s) are reading this topic (2 Guests and 0 Anonymous Users)
0 Members:

 



- Lo-Fi Version Support form
Copyrights and abuse reports form
Time is now: 18th July 2019 - 12:25:05