Welcome Guest ( Log In | Register )

 
Reply to this topicStart new topic
> Vesperaseth - Spectrophobia (2019), Gothic/Doom/Death/Black Metal
post Feb 6 2019, 03:26:02
Post #1

Правь статус, ####!111
**************
Group: Металариец
Posts: 18,114
Releases: 12251
From: Г.Харьков
On Forums: 7 years 3 months
Thanks: 206339 time(s)
Unknown


(IMG:https://metalarea.org/images/audiocovers/2019_Feb/acov_tid317128_thumb.jpg)

*Artist: Vesperaseth
*Album: Spectrophobia
*Year: 2019
*Genre: Gothic/Doom/Death/Black Metal
*Country: Brazil (IMG:https://metalarea.org/forum/style_images/flags/Brazil.png)
*Format: mp3@CBR320kbps
*Size: 85MB

Tracklist:
1. Insomnia
2. Spectrophobia
3. Delirium
4. Anjo No Abismo
5. O Pacto
6. Veneficae, Pt. 1
7. A Mascara Da Morte Escarlate
8. Veneficae, Pt. 2
******************************
Total playing time: 37:19




Extended info
Ariane Carvalho Bass (2013-present)
Cotina Drums (2013-2015, 2016-present)
Naamã Calebe Vocals, Keyboards (2013-present)
Thiago Lima Guitars (2017-present)


Technical info
(IMG:https://metalarea.org/images/spectrogram/2019_Feb/67aaaad0594f625d6f1a992628cabeca.png)
Input File: 03 - Delirium.mp3
Channels : 2
Sample Rate : 44100
Precision : 16-bit
Duration : 00:05:29.08 = 14512516 samples = 24681.1 CDDA sectors
File Size : 13.3M
Bit Rate : 323k
Sample Encoding: MPEG audio (layer I, II or III)
Comments :
Title=Delirium
Artist=Vesperaseth
Album=Spectrophobia
Tracknumber=3
Year=2019



Register


Go to the top of the page
  Insert nick Quick quote
+Quote Post

Reply to this topicStart new topic
1 User(s) are reading this topic (1 Guests and 0 Anonymous Users)
0 Members:

 



- Lo-Fi Version Support form
Copyrights and abuse reports form
Time is now: 17th August 2019 - 18:40:13