Welcome Guest ( Log In | Register )

> Amethyst - Amethyst (2005), Power/Thrash Metal (D10)
post Feb 6 2019, 09:29:10
Post #1

Join my religion, or die
**************
Group: Металариец
Posts: 10,158
Releases: 1355
From: Питера
On Forums: 9 years 6 months
Thanks: 17475 time(s)
Russian Federation


(IMG:http://metalarea.org/images/audiocovers/2019_Feb/acov_tid317134_thumb.jpg)

*Artist: Amethyst
*Album: Amethyst
*Year: 2005
*Genre: Power/Thrash Metal
*Country: United States (IMG:http://metalarea.org/forum/style_images/flags/United%20States.png)
*Format: mp3@CBR320kbps
*Size: 81MB

Tracklist:
01. Forever
02. Marching In
03. Unseal the Crypt
04. My Friend
05. The Storm Is Over
06. Gone Astray
07. Whiter Than Snow
08. Joyful Noize
******************************
Total playing time: 38:27

Extended info
320 здесь нет.
Это запись была предоставлена Mark Fekete вокалистом группы.
По его словам лучшего качества нет, так как писались черти где,
черте на чем и черте когда...
Альбом является переизданием первого демо группы от 1989 года
Не смотря на графики - вполне слушабельно.


Technical info
(IMG:http://metalarea.org/images/spectrogram/2019_Feb/861b590803c03c095bcb3727ac1dd87e.png)
Input File: 01 Forever.mp3
Channels : 2
Sample Rate : 48000
Precision : 16-bit
Duration : 00:03:21.99 = 9695376 samples ~ 15149 CDDA sectors
File Size : 8.22M
Bit Rate : 326k
Sample Encoding: MPEG audio (layer I, II or III)
Comments :
Title=Forever
Artist=Amethyst
Album=2005 Amethyst
Tracknumber=01/08
Year=2005
Genre=Thrash Metal



Register


Go to the top of the page
  Insert nick Quick quote
+Quote Post
 
Start new topic
Replies (1 - 1)
post Feb 6 2019, 16:00:03
Post #2
BAN
Banned till
Nov 22 2292, 14:03:04



Оригинальное лого


Thanks:
(1) slack,
Go to the top of the page
  Insert nick Quick quote
+Quote Post

Reply to this topicStart new topic
1 User(s) are reading this topic (1 Guests and 0 Anonymous Users)
0 Members:

 



- Lo-Fi Version Support form
Copyrights and abuse reports form
Time is now: 24th April 2019 - 13:21:13