Welcome Guest ( Log In | Register )

 
Reply to this topicStart new topic
> Melvins - Tora Tora Tora Tour 1995 [live] (1995), Sludge/Stoner Metal (D)
post Feb 7 2019, 09:05:34
Post #1

Маньяк
**********
Group: Металариец
Posts: 1,035
Releases: 65
On Forums: 5 years 4 months
Thanks: 1740 time(s)
Unknown


(IMG:http://metalarea.org/images/audiocovers/2019_Feb/acov_tid317184_thumb.jpg)

*Artist: Melvins
*Album: Tora Tora Tora Tour 1995 [live]
*Year: 1995
*Genre: Sludge/Stoner Metal
*Country: United States (IMG:http://metalarea.org/forum/style_images/flags/United%20States.png)
*Format: mp3@CBR160kbps (IMG:http://metalarea.org/images/bit_low.gif)
*Size: 68MB

Tracklist:
01. Revolve 07:11
02. Skweetis / With Teeth / White Zombie Ad 07:21
03. Night Goat / Specimen 07:22
04. Specimen / Concert Warning 06:44
05. KISW Interview / Hooch / Queen 07:36
06. Johnny Reno Gunfighter / Oven / Goose Freight Train 07:52
07. Goggles / Sweet Willy Rollbar 08:01
08. Radio Interview / Roadbull 07:22
******************************
Total playing time: 59:29

Extended info
https://www.discogs.com/Melvins-Tora-Tora-Tora-Tour-1995/release/2427643

4 × Vinyl, 7", Limited Edition
Each record sleeve is printed with a photo of an individual band member. Several pages of art are also included.

The four 7" records, sleeves and art are bound between two hard covers by two 1/4"x 5/8" hex head bolts.


Technical info
(IMG:http://metalarea.org/images/spectrogram/2019_Feb/c5738cee510fd304fb10d7cef7d63bb2.png)
Input File: 01 - Revolve.mp3
Channels : 2
Sample Rate : 44100
Precision : 16-bit
Duration : 00:07:11.40 = 19024696 samples = 32354.9 CDDA sectors
File Size : 8.63M
Bit Rate : 160k
Sample Encoding: MPEG audio (layer I, II or III)
Comments :
Title=Revolve
Artist=Melvins - Tora Tora Tora
Album=Tora Tora Tora
Tracknumber=01
Year=1995
Genre=Noise



Register


Thanks:
Go to the top of the page
  Insert nick Quick quote
+Quote Post

Reply to this topicStart new topic
1 User(s) are reading this topic (1 Guests and 0 Anonymous Users)
0 Members:

 



- Lo-Fi Version Support form
Copyrights and abuse reports form
Time is now: 19th February 2019 - 18:13:51