Welcome Guest ( Log In | Register )

 
Reply to this topicStart new topic
> Agony Reigns - Death From Within [ep] (2019), Thrash Metal
post Feb 7 2019, 11:57:08
Post #1

Аннигилятор пивА
Group Icon
Group: V.I.P
Posts: 52,277
Releases: 16523
From: Koenigsberg - TILZIT
On Forums: 12 years 8 months
Thanks: 357926 time(s)
Russian Federation


(IMG:https://metalarea.org/images/audiocovers/2019_Feb/acov_tid317208_thumb.jpg)

*Artist: Agony Reigns
*Album: Death From Within [ep]
*Year: 2019
*Genre: Thrash Metal
*Country: United States (IMG:https://metalarea.org/forum/style_images/flags/United%20States.png)
*Format: mp3@CBR320kbps
*Size: 55MB

Tracklist:
1. Inception 01:03
2. Asphyxiate 04:07
3. Unquiet 03:40
4. Tainted Minds 04:24
5. Elusion 04:48
6. Death from Within 05:53
******************************
Total playing time: 23:55



Extended info
Matt McGee - Bass, Vocals (2017-present) See also: ex-Defiled Christ, ex-Powerhouse, ex-Near an Open Flame
Ben Moen - Drums (2017-present) See also: Voltage, ex-Powerhouse
Jake Schultz - Guitars (lead) (2017-present) See also: Voltage, The Montys, ex-Powerhouse, ex-The Montes
Taylor Haagensen - Guitars (lead, rhythm) (2018-present) See also: Defiled Christ, ex-Severality


Technical info
(IMG:https://metalarea.org/images/spectrogram/2019_Feb/cdd346fdc064b4fe03c4f129b1341143.png)
Input File: 2 - Asphyxiate.mp3
Channels : 2
Sample Rate : 44100
Precision : 16-bit
Duration : 00:04:07.60 = 10919248 samples = 18570.1 CDDA sectors
File Size : 10.0M
Bit Rate : 323k
Sample Encoding: MPEG audio (layer I, II or III)
Comments :
Title=Asphyxiate
Artist=Agony Reigns
Album=Death from Within
Tracknumber=2
Year=2019
Genre=Metal
Discnumber=1



Register


Go to the top of the page
  Insert nick Quick quote
+Quote Post

Reply to this topicStart new topic
2 User(s) are reading this topic (2 Guests and 0 Anonymous Users)
0 Members:

 



- Lo-Fi Version Support form
Copyrights and abuse reports form
Time is now: 19th February 2019 - 17:37:25