Welcome Guest ( Log In | Register )

 
Reply to this topicStart new topic
> Deja-Vu - Deja-Vu [demo] (1989), Thrash Metal
post Feb 7 2019, 22:45:33
Post #1

Подвал
**************
Group: Металариец
Posts: 13,061
Releases: 7327
From: Far East (Khabarovsk)
On Forums: 10 years 3 weeks
Thanks: 69338 time(s)
Russian Federation


(IMG:http://metalarea.org/images/audiocovers/2019_Feb/acov_tid317256_thumb.jpg)

*Artist: Deja-Vu
*Album: Deja-Vu [demo]
*Year: 1989
*Genre: Thrash Metal
*Country: Brazil (IMG:http://metalarea.org/forum/style_images/flags/Brazil.png)
*Format: mp3@VBR156kbps (IMG:http://metalarea.org/images/bit_low.gif)
*Size: 10MB

Tracklist:
1. Greatest Gift Of All 03:49
2. Echoes Of Insanity 05:10
******************************
Total playing time: 8:59

Extended info
Recorded at Zen Studios - Brasilia DF.
Musically very influenced by Evildead (US/CA).


Technical info
(IMG:http://metalarea.org/images/spectrogram/2019_Feb/2eb2e1bf39345ff0c9ead730d1c2822e.png)
Input File: 01-Greatest Gift of All.mp3
Channels : 2
Sample Rate : 44100
Precision : 16-bit
Duration : 00:03:50.01 = 10143353 samples = 17250.6 CDDA sectors
File Size : 4.15M
Bit Rate : 144k
Sample Encoding: MPEG audio (layer I, II or III)
Comments :
Title=Greatest Gift of All
Artist=Deja-Vu (Bra)
Album=Deja-Vu (Demo)
Tracknumber=01
Year=1989
Genre=Thrash Metal



Register


Go to the top of the page
  Insert nick Quick quote
+Quote Post

Reply to this topicStart new topic
2 User(s) are reading this topic (2 Guests and 0 Anonymous Users)
0 Members:

 



- Lo-Fi Version Support form
Copyrights and abuse reports form
Time is now: 19th February 2019 - 18:52:57