Welcome Guest ( Log In | Register )

> Stahlmagen - Winter (2019), Epic/Melodic Black/Pagan Metal
post Feb 8 2019, 00:45:17
Post #1

Аннигилятор пивА
Group Icon
Group: V.I.P
Posts: 52,356
Releases: 16556
From: Koenigsberg - TILZIT
On Forums: 13 years 1 month
Thanks: 361419 time(s)
Russian Federation


(IMG:https://metalarea.org/images/audiocovers/2019_Feb/acov_tid317260_thumb.jpg)

*Artist: Stahlmagen
*Album: Winter
*Year: 2019
*Genre: Epic/Melodic Black/Pagan Metal
*Country: Germany (IMG:https://metalarea.org/forum/style_images/flags/Germany.png)
*Format: mp3@CBR320kbps
*Size: 114MB

Tracklist:
1. The End 05:49
2. Trail of Tears 04:26
3. Winter 04:30
4. Burn to Nothing 05:34
5. Fell Down the Well 03:07
6. Greater Purpose 05:24
7. Bauerntanz und Minnesang 03:16
8. Navigation Problems (We Are the Vikings) 04:52
9. Margaritkelekh 05:12
10. Long Way Home 06:59
******************************
Total playing time: 49:09




Extended info
Karl Palke - Bass
Michael Goelz - Drums
Hansjörg Rommel - Guitars
Finn Rumpela - Guitars
Thorsten Steinle - Vocals
Martin Zapfl - Guitars (2009-present)


Technical info
(IMG:https://metalarea.org/images/spectrogram/2019_Feb/b7ee4467ee97db078cd668ec875e7a97.png)
Input File: 2 - Trail of Tears.mp3
Channels : 2
Sample Rate : 44100
Precision : 16-bit
Duration : 00:04:26.70 = 11761382 samples = 20002.4 CDDA sectors
File Size : 10.7M
Bit Rate : 322k
Sample Encoding: MPEG audio (layer I, II or III)
Comments :
Title=Trail of Tears
Artist=Stahlmagen
Album=Winter
Tracknumber=2
Year=2019
Genre=Metal
Discnumber=1



Register


Go to the top of the page
  Insert nick Quick quote
+Quote Post
 
Start new topic
Replies (1 - 4)
post Feb 8 2019, 11:33:46
Post #2

Аннигилятор пивА
Group Icon
Group: V.I.P
Posts: 52,356
Releases: 16556
From: Koenigsberg - TILZIT
On Forums: 13 years 1 month
Thanks: 361419 time(s)
Russian Federation


варганчик, скрипочка, чистоголосые викинг-распевки, всяческие переходики...приятный и воздушный блэкенед фолк митол
Register





Go to the top of the page
  Insert nick Quick quote
+Quote Post
post Feb 8 2019, 15:33:08
Post #3

Правь статус, ####!111
**************
Group: Металариец
Posts: 2,499
Releases: 3
From: Dnipro
On Forums: 11 years 6 days
Thanks: 681 time(s)
Ukraine


Если бы выкинуть вот эти "варганчик, скрипочка, чистоголосые викинг-распевки, всяческие переходики" может что то и получилось, а так...... (IMG:style_emoticons/default/13.gif)
Go to the top of the page
  Insert nick Quick quote
+Quote Post
post Feb 11 2019, 10:07:37
Post #4

Ъ
**************
Group: Металариец
Posts: 9,588
Releases: 9
On Forums: 10 years 6 months
Thanks: 1866 time(s)
Sweden


Ничего не получилось бы, каркас материала тоже УГ.
Go to the top of the page
  Insert nick Quick quote
+Quote Post
post Apr 9 2019, 06:27:49
Post #5

i listen to black metal
**************
Group: Металариец
Posts: 2,365
Releases: 128
From: Москва-Лианозово
On Forums: 12 years 6 months
Thanks: 2051 time(s)
Russian Federation


нормально всё...на майские праздники под шашлычёк их хорошо слушать!!!
Go to the top of the page
  Insert nick Quick quote
+Quote Post

Reply to this topicStart new topic
2 User(s) are reading this topic (2 Guests and 0 Anonymous Users)
0 Members:

 



- Lo-Fi Version Support form
Copyrights and abuse reports form
Time is now: 20th July 2019 - 05:59:34