Welcome Guest ( Log In | Register )

> Assassin - Leader Of The New World (1995), Death/Thrash Metal (D)
post Feb 8 2019, 09:43:21
Post #1

Подвал
**************
Group: Металариец
Posts: 13,548
Releases: 7681
From: Far East (Khabarovsk)
On Forums: 10 years 5 months
Thanks: 73693 time(s)
Russian Federation


(IMG:http://metalarea.org/images/audiocovers/2019_Feb/acov_tid317276_thumb.jpg)

*Artist: Assassin
*Album: Leader Of The New World
*Year: 1995
*Genre: Death/Thrash Metal
*Country: South Korea (IMG:http://metalarea.org/forum/style_images/flags/South%20Korea.png)
*Format: mp3@CBR160kbps (IMG:http://metalarea.org/images/bit_low.gif)
*Size: 40MB

Tracklist:
1. Those Who Always Exist 01:19
2. Last World Of Destruction 02:31
3. Downfall 04:20
4. The Unknown Years Of Shout 01:47
5. Something Dirty 03:27
6. Mystery Of Empire Inca 05:06
7. Mandat 04:37
8. In The Underground Carcass Refrigerator For 3 Days 06:49
9. 잃어버린 시간 04:27
10. 생각대로 01:33
******************************
Total playing time: 35:56

Technical info
(IMG:http://metalarea.org/images/spectrogram/2019_Feb/980a56f42689d4d918daa5f668004c0b.png)
Input File: 02-Last World Of Destruction.MP3
Channels : 2
Sample Rate : 44100
Precision : 16-bit
Duration : 00:02:31.44 = 6678504 samples = 11358 CDDA sectors
File Size : 3.03M
Bit Rate : 160k
Sample Encoding: MPEG audio (layer I, II or III)
Comments :
Title=Last World Of Destruction
Artist=Assassin
Album=Leader Of The New World
Tracknumber=02
Year=1995
Genre=Thrash Metal



Register


Go to the top of the page
  Insert nick Quick quote
+Quote Post
 
Start new topic
Replies (1 - 2)
post Feb 8 2019, 18:02:40
Post #2

Два Литра
**
Group: Завсегдатай
Posts: 148
Releases: 0
On Forums: 11 months 4 weeks
Thanks: 7 time(s)
Serbia


You mistake, it's 1996 year, not 1995.
Go to the top of the page
  Insert nick Quick quote
+Quote Post
post Feb 8 2019, 19:27:53
Post #3

Group: Подсевший
Posts: 29
Releases: 0
From: Poland
On Forums: 5 years 4 months
Thanks: 2 time(s)
United Kingdom


QUOTE(Pobelir @ Feb 8 2019, 18:02:40) *
You mistake, it's 1996 year, not 1995.

1995 check the year on the back (IMG:https://i.ibb.co/1vvC3Ct/0.jpg)


Thanks:
Go to the top of the page
  Insert nick Quick quote
+Quote Post

Reply to this topicStart new topic
2 User(s) are reading this topic (2 Guests and 0 Anonymous Users)
0 Members:

 



- Lo-Fi Version Support form
Copyrights and abuse reports form
Time is now: 20th July 2019 - 05:57:25