Welcome Guest ( Log In | Register )

 
Reply to this topicStart new topic
> Butcher - Harmony Has No Limits [demo] (1989), Thrash Metal (D7)
post Feb 8 2019, 10:46:13
Post #1

Подвал
**************
Group: Металариец
Posts: 13,548
Releases: 7681
From: Far East (Khabarovsk)
On Forums: 10 years 5 months
Thanks: 73693 time(s)
Russian Federation


(IMG:http://metalarea.org/images/audiocovers/2019_Feb/acov_tid317278_thumb.jpg)

*Artist: Butcher
*Album: Harmony Has No Limits [demo]
*Year: 1989
*Genre: Thrash Metal
*Country: Brazil (IMG:http://metalarea.org/forum/style_images/flags/Brazil.png)
*Format: mp3@CBR192kbps
*Size: 18MB

Tracklist:
1. Harmony Has No Limits (Instrumental) 04:08
2. Intro (The Inspector) / Chewing Corpses 04:17
3. Way Of Darkness 05:05
******************************
Total playing time: 13:30

Extended info
Recorded on 8 channels in the studio "108 Produções", BH - Aug/89.
Mixed by Butcher, Tarso Sensa.


Technical info
(IMG:http://metalarea.org/images/spectrogram/2019_Feb/2b8351c79289d4b98ef26e969386a1f6.png)
Input File: 01-Harmony Has No Limits.mp3
Channels : 2
Sample Rate : 44100
Precision : 16-bit
Duration : 00:04:08.72 = 10968728 samples = 18654.3 CDDA sectors
File Size : 5.97M
Bit Rate : 192k
Sample Encoding: MPEG audio (layer I, II or III)
Comments :
Title=Harmony Has No Limits
Artist=Butcher
Album=Harmony Has No Limits (Demo)
Tracknumber=01
Year=1989
Genre=Thrash Metal



Register


Go to the top of the page
  Insert nick Quick quote
+Quote Post

Reply to this topicStart new topic
2 User(s) are reading this topic (2 Guests and 0 Anonymous Users)
0 Members:

 



- Lo-Fi Version Support form
Copyrights and abuse reports form
Time is now: 20th July 2019 - 06:04:57