Welcome Guest ( Log In | Register )

 
Reply to this topicStart new topic
> Belial - Almas Ciegas [demo] (1992), Death Metal (D)
post Feb 8 2019, 13:11:49
Post #1

Подвал
**************
Group: Металариец
Posts: 13,061
Releases: 7327
From: Far East (Khabarovsk)
On Forums: 10 years 3 weeks
Thanks: 69338 time(s)
Russian Federation


(IMG:http://metalarea.org/images/audiocovers/2019_Feb/acov_tid317282_thumb.jpg)

*Artist: Belial
*Album: Almas Ciegas [demo]
*Year: 1992
*Genre: Death Metal
*Country: Colombia (IMG:http://metalarea.org/forum/style_images/flags/Colombia.png)
*Format: mp3@CBR192kbps
*Size: 41MB

Tracklist:
1. Purgatorio 06:23
2. Corrupción 06:35
3. Ritual 01:20
4. Dinero Y Poder 04:48
5. Almas Ciegas 06:18
6. Mundo Putrefacto 04:48
******************************
Total playing time: 30:12


(IMG:http://metalarea.org/images/myspace.png)

Technical info
(IMG:http://metalarea.org/images/spectrogram/2019_Feb/cee4e1ee58ac09fede15954b3f0d7af5.png)
Input File: 01-Purgatorio.mp3
Channels : 2
Sample Rate : 44100
Precision : 16-bit
Duration : 00:05:51.75 = 15512351 samples = 26381.5 CDDA sectors
File Size : 8.44M
Bit Rate : 192k
Sample Encoding: MPEG audio (layer I, II or III)
Comments :
Title=Purgatorio
Artist=Belial (Col)
Album=Almas Ciegas (Demo)
Tracknumber=01
Year=1992
Genre=Death Metal



Register


Go to the top of the page
  Insert nick Quick quote
+Quote Post

Reply to this topicStart new topic
1 User(s) are reading this topic (1 Guests and 0 Anonymous Users)
0 Members:

 



- Lo-Fi Version Support form
Copyrights and abuse reports form
Time is now: 19th February 2019 - 18:32:17