Welcome Guest ( Log In | Register )

> Brain Dead - Unreleased Demo [demo] (1988), Thrash Metal (D12)
post Feb 8 2019, 13:23:49
Post #1

Подвал
**************
Group: Металариец
Posts: 13,061
Releases: 7327
From: Far East (Khabarovsk)
On Forums: 10 years 3 weeks
Thanks: 69336 time(s)
Russian Federation


(IMG:http://metalarea.org/images/audiocovers/nocover.gif)

*Artist: Brain Dead
*Album: Unreleased Demo [demo]
*Year: 1988
*Genre: Thrash Metal
*Country: United States (IMG:http://metalarea.org/forum/style_images/flags/United%20States.png)
*Format: mp3@CBR128kbps (IMG:http://metalarea.org/images/bit_low.gif)
*Size: 17MB

Tracklist:
1. The Dead March On 04:03
2. Hate 03:05
3. Brain Dead 05:15
4. Warriors Of The Wasteland 04:21
5. I Want To Go Home 02:42
******************************
Total playing time: 19:26

Extended info
Unknown reh. demo uploaded by Paranoizenola long time ago.


Technical info
(IMG:http://metalarea.org/images/spectrogram/2019_Feb/130da36a7304130a8fd50d3256502cec.png)
Input File: 02-Hate.mp3
Channels : 2
Sample Rate : 44100
Precision : 16-bit
Duration : 00:03:06.04 = 8204232 samples = 13952.8 CDDA sectors
File Size : 2.97M
Bit Rate : 128k
Sample Encoding: MPEG audio (layer I, II or III)
Comments :
Title=Hate
Artist=Brain Dead (US)
Album=Unreleased Demo
Tracknumber=02
Year=1988
Genre=Thrash Metal



Register


Go to the top of the page
  Insert nick Quick quote
+Quote Post
 
Start new topic
Replies (1 - 3)
post Feb 9 2019, 10:00:14
Post #2

Мегаманьяк
***********
Group: Металариец
Posts: 1,527
Releases: 0
On Forums: 2 years 7 months
Thanks: 85 time(s)
United Kingdom


Thanks for this any info which part in USA
Go to the top of the page
  Insert nick Quick quote
+Quote Post
post Feb 9 2019, 10:23:39
Post #3

Два Литра
**
Group: Завсегдатай
Posts: 111
Releases: 10
On Forums: 3 weeks 21 hours
Thanks: 173 time(s)
Canada


QUOTE(Wail @ Feb 9 2019, 10:00:14) *
Thanks for this any info which part in USA

New Orleans


Thanks:
Go to the top of the page
  Insert nick Quick quote
+Quote Post
post Feb 10 2019, 00:01:33
Post #4

Мегаманьяк
***********
Group: Металариец
Posts: 1,527
Releases: 0
On Forums: 2 years 7 months
Thanks: 85 time(s)
United Kingdom


Thanks

Thanks man
Go to the top of the page
  Insert nick Quick quote
+Quote Post

Reply to this topicStart new topic
1 User(s) are reading this topic (1 Guests and 0 Anonymous Users)
0 Members:

 



- Lo-Fi Version Support form
Copyrights and abuse reports form
Time is now: 19th February 2019 - 17:39:58