Welcome Guest ( Log In | Register )

 
Reply to this topicStart new topic
> Black Spot - Burn (1988), Heavy/Speed Metal
post Feb 8 2019, 14:03:08
Post #1

Подвал
**************
Group: Металариец
Posts: 13,279
Releases: 7497
From: Far East (Khabarovsk)
On Forums: 10 years 2 months
Thanks: 71365 time(s)
Russian Federation


(IMG:http://metalarea.org/images/audiocovers/2019_Feb/acov_tid317288_thumb.jpg)

*Artist: Black Spot
*Album: Burn
*Year: 1988
*Genre: Heavy/Speed Metal
*Country: United States (IMG:http://metalarea.org/forum/style_images/flags/United%20States.png)
*Format: mp3@CBR192kbps
*Size: 47MB

Tracklist:
1. Tuesday Morning 03:27
2. Beacon From Hell 02:34
3. Pretty Little Girl 02:49
4. Hey, How R. U. 02:58
5. Kotton Kitten 04:15
6. Burn 03:27
7. 17x 02:40
8. Hellacious Headache 03:13
9. Bad Ass Hammer 03:22
10. I Don't Give Flowers To Girls 03:33
******************************
Total playing time: 32:18

Extended info
Band from Minneapolis, Minnesota (early) / Chicago, Illinois (later).


Technical info
(IMG:http://metalarea.org/images/spectrogram/2019_Feb/6064bbf7f9680b22f2038ca0f5244d52.png)
Input File: 02-Beacon From Hell.mp3
Channels : 2
Sample Rate : 44100
Precision : 16-bit
Duration : 00:02:42.87 = 7182699 samples = 12215.5 CDDA sectors
File Size : 3.94M
Bit Rate : 194k
Sample Encoding: MPEG audio (layer I, II or III)
Comments :
Title=Beacon From Hell
Artist=Black Spot
Album=Burn
Tracknumber=02
Year=1988
Genre=Metal



Register


Go to the top of the page
  Insert nick Quick quote
+Quote Post

Reply to this topicStart new topic
1 User(s) are reading this topic (1 Guests and 0 Anonymous Users)
0 Members:

 



- Lo-Fi Version Support form
Copyrights and abuse reports form
Time is now: 24th April 2019 - 13:53:29