Welcome Guest ( Log In | Register )

 
Reply to this topicStart new topic
> Asphodelus - Stygian Dreams (2019), Doom/Death Metal
post Feb 8 2019, 19:28:07
Post #1

Мегаманьяк
***********
Group: Металариец
Posts: 1,571
Releases: 1351
From: Одесса
On Forums: 10 years 8 months
Thanks: 10834 time(s)
Ukraine


(IMG:http://metalarea.org/images/audiocovers/2019_Feb/acov_tid317308_thumb.jpg)

*Artist: Asphodelus
*Album: Stygian Dreams
*Year: 2019
*Genre: Doom/Death Metal
*Country: Finland (IMG:http://metalarea.org/forum/style_images/flags/Finland.png)
*Format: mp3@CBR128kbps (IMG:http://metalarea.org/images/bit_low.gif)
*Size: 41MB

Tracklist:
1. Les Océanides (Intro) 02:37
2. Lamentation of the Lost Sou 04:43
3. Scent of Venus 04:33
4. The Hourglass Infernal 05:33
5. Delusions ad Astra 05:03
6. Stygian Dreaming 06:29
7. Sleep of Eternity 04:51
8. Where Freezing Spirits Fall 08:37
******************************
Total playing time: 42:26



Extended info
Line - up:
J. Filppu - Bass, Guitars, Vocals (Repression, ex-Cemetery Fog)
V. Kettunen - Drums (ex-Cemetery Fog)
J. Väyrynen - Guitars (ex-Cemetery Fog)

Guest/Session:
Tomi Pekkola - Keyboards (Locust Year, Paganus)

(IMG:https://www.metal-archives.com/images/3/5/4/0/3540406971_photo.jpg?3029)


Technical info
(IMG:http://metalarea.org/images/spectrogram/2019_Feb/e1050a5802db53f03b0679af6935111b.png)
Input File: 08. Where Freezing Spirits Fall.mp3
Channels : 2
Sample Rate : 44100
Precision : 16-bit
Duration : 00:08:36.63 = 22783251 samples = 38747 CDDA sectors
File Size : 8.27M
Bit Rate : 128k
Sample Encoding: MPEG audio (layer I, II or III)
Comments :
Title=Where Freezing Spirits Fall
Artist=Asphodelus
Album=Stygian Dreams
Tracknumber=8
Year=2019
Genre=Doom / Death Metal



Register


Go to the top of the page
  Insert nick Quick quote
+Quote Post

Reply to this topicStart new topic
2 User(s) are reading this topic (2 Guests and 0 Anonymous Users)
0 Members:

 



- Lo-Fi Version Support form
Copyrights and abuse reports form
Time is now: 19th February 2019 - 17:51:13