Welcome Guest ( Log In | Register )

> Dead Christ Cult - Музыка Небесных Сфер [ep] (2018), Atmospheric Black Metal (D)
post Feb 8 2019, 20:24:49
Post #1

Group: Дух
Posts: 8
Releases: 4
On Forums: 1 year 3 months
Thanks: 47 time(s)
Russian Federation


(IMG:https://metalarea.org/images/audiocovers/2019_Feb/acov_tid317317_thumb.jpg)

*Artist: Dead Christ Cult
*Album: Музыка Небесных Сфер [ep]
*Year: 2018
*Genre: Atmospheric Black Metal
*Country: Ukraine (IMG:https://metalarea.org/forum/style_images/flags/Ukraine.png)
*Format: mp3@CBR224kbps
*Size: 14MB

Tracklist:
1. Музыка небесных сфер
2. Демон моего космоса
******************************
Total playing time: 8:03

Extended info
Музыка и слова D.c.C.
Space Ambient в песне "Демон Моего Космоса" написан и записан Pt 74

M.
T.G.
R.


Музыка небесных сфер

Рассыпая слова книги света и тьмы,
Затерявшись в коллекторе душ навсегда,
Смотришь долго на небо и хочешь узнать
Красоту и величие музыки сфер.

Музыка сфер - даруй же своих тайных знаний!
Ты не один. Быть тобою объят долю я выбираю!
Много таких. Всё что знать я и слышать хотел!
Далёкую музыку сфер ... небесных сфер!

Смотришь долго на небо, стоишь средь толпы
Исковерканных жизнью нелепой людей.
Как и все, ты пытаешься телом постичь
Простоту недоступности музыки сфер.

Музыка сфер - даруй же своих тайных знаний!
Снова в толпе. Быть тобою объят долю я выбираю!
Ты как и все. Всё что знать я и слышать хотел!
Эфемерную музыку сфер ... небесных сфер!

Твоё тело - лишь часть человеческих масс
Грубых, злых полуженщин, сладких недомужчин.
Но среди электрических смерти и волн
Не дано тебе слышать звуки музыки сфер!
Музыка сфер!
Музыка сфер!

Музыка сфер - даруй же своих тайных знаний!
Много людей. Быть тобою объят долю я выбираю!
Слился с толпой. Всё что знать я и слышать хотел!
Прекрасную музыку сфер ... небесных сфер!



Демон Моего Космоса

Сквозь туманы и толщи холода
Разлетаясь в пространстве разума
Семенами, частями ярости
Предо мной предстаёшь демоном

Злым, крылатым ... моим демоном
Очень лёгким, как пыль Космоса
Щчень старым, как свет Космоса
И таким же как Взрыв праведным

Разрываешь все мысли лапами
Тело правды кусаешь, мучаешь
Всюду сыплешь зёрна сомнения
В крови медленно растворяешься...


Technical info
(IMG:https://metalarea.org/images/spectrogram/2019_Feb/08fc19bf9bf70a54640fe62f631b1fc5.png)
Input File: 02. Демон Моего Космоса.mp3
Channels : 2
Sample Rate : 44100
Precision : 16-bit
Duration : 00:03:51.08 = 10190628 samples = 17331 CDDA sectors
File Size : 6.47M
Bit Rate : 224k
Sample Encoding: MPEG audio (layer I, II or III)
Comments :
Title=Демон Моего Космоса
Artist=Deac christ Cult
Album=Музыка Небесных Сфер (ЕР)
Tracknumber=02
Year=2018
Genre=138



Register


Go to the top of the page
  Insert nick Quick quote
+Quote Post
 
Start new topic
Replies (1 - 2)
post Feb 8 2019, 21:45:11
Post #2

Group: Дух
Posts: 8
Releases: 4
On Forums: 1 year 3 months
Thanks: 47 time(s)
Russian Federation


Go to the top of the page
  Insert nick Quick quote
+Quote Post
post Feb 9 2019, 03:49:10
Post #3

Правь статус, ####!111
**************
Group: Металариец
Posts: 2,459
Releases: 11
From: Canada
On Forums: 12 years 11 months
Thanks: 1639 time(s)
Canada




Thanks:
(1) Dima8806,
Go to the top of the page
  Insert nick Quick quote
+Quote Post

Reply to this topicStart new topic
2 User(s) are reading this topic (2 Guests and 0 Anonymous Users)
0 Members:

 



- Lo-Fi Version Support form
Copyrights and abuse reports form
Time is now: 30th May 2020 - 23:13:08