Welcome Guest ( Log In | Register )

> Calvary - Evoked Damnation [demo] (1992), Death Metal (D)
post Feb 9 2019, 12:59:50
Post #1

Подвал
**************
Group: Металариец
Posts: 13,565
Releases: 7694
From: Far East (Khabarovsk)
On Forums: 10 years 6 months
Thanks: 74092 time(s)
Russian Federation


(IMG:http://metalarea.org/images/audiocovers/2019_Feb/acov_tid317334_thumb.jpg)

*Artist: Calvary
*Album: Evoked Damnation [demo]
*Year: 1992
*Genre: Death Metal
*Country: Germany (IMG:http://metalarea.org/forum/style_images/flags/Germany.png)
*Format: mp3@CBR160kbps (IMG:http://metalarea.org/images/bit_low.gif)
*Size: 38MB

Tracklist:
1. Revelations / Evoked Damnation 09:49
2. Lost 06:21
3. Canonised Evil 08:05
4. Ravished 09:26
******************************
Total playing time: 33:41

Extended info
Recorded October 1992 at Earth-Music Studios on 24 tracks.


Technical info
(IMG:http://metalarea.org/images/spectrogram/2019_Feb/d2d63632f252f811d14aaf3f66e0f4da.png)
Input File: 02-Lost.mp3
Channels : 2
Sample Rate : 44100
Precision : 16-bit
Duration : 00:06:21.17 = 16809377 samples = 28587.4 CDDA sectors
File Size : 7.63M
Bit Rate : 160k
Sample Encoding: MPEG audio (layer I, II or III)
Comments :
Title=Lost
Artist=Calvary (Ger)
Album=Evoked Damnation (Demo)
Tracknumber=02
Year=1992
Genre=Death Metal



Register


Go to the top of the page
  Insert nick Quick quote
+Quote Post
 
Start new topic
Replies (1 - 1)
post Feb 9 2019, 20:53:53
Post #2

Forever Underground
**************
Group: Металариец
Posts: 5,878
Releases: 0
On Forums: 4 years 4 months
Thanks: 6469 time(s)
Unknown


Thank you so much, bro! (IMG:style_emoticons/default/9.gif) If you manage to find their other demo, in the next future, please share it, thanks! I'm talking about this Demo '94: https://www.discogs.com/Calvary-Facilities-...release/6365120
(IMG:style_emoticons/default/metaler.gif)
Go to the top of the page
  Insert nick Quick quote
+Quote Post

Reply to this topicStart new topic
1 User(s) are reading this topic (1 Guests and 0 Anonymous Users)
0 Members:

 



- Lo-Fi Version Support form
Copyrights and abuse reports form
Time is now: 17th August 2019 - 17:52:43