Welcome Guest ( Log In | Register )

 
Reply to this topicStart new topic
> Endless - Life Drawing [ep] (1995), Death Metal (D)
post Feb 9 2019, 13:20:22
Post #1

Подвал
**************
Group: Металариец
Posts: 13,061
Releases: 7327
From: Far East (Khabarovsk)
On Forums: 10 years 3 weeks
Thanks: 69336 time(s)
Russian Federation


(IMG:http://metalarea.org/images/audiocovers/2019_Feb/acov_tid317335_thumb.jpg)

*Artist: Endless
*Album: Life Drawing [ep]
*Year: 1995
*Genre: Death Metal
*Country: Canada (IMG:http://metalarea.org/forum/style_images/flags/Canada.png)
*Format: mp3@CBR192kbps
*Size: 24MB

Tracklist:
1. True Sorrow 02:02
2. Heir Of Greed 03:42
3. Life Drawing 04:56
4. Departing Souls 03:11
5. Panoramic 03:26
6. Childs Dream 00:48
******************************
Total playing time: 18:05

Technical info
(IMG:http://metalarea.org/images/spectrogram/2019_Feb/48d1bff399144ae9738181d63d1b5991.png)
Input File: 02-Heir of Greed.mp3
Channels : 2
Sample Rate : 44100
Precision : 16-bit
Duration : 00:03:42.86 = 9828214 samples = 16714.6 CDDA sectors
File Size : 5.35M
Bit Rate : 192k
Sample Encoding: MPEG audio (layer I, II or III)
Comments :
Title=Heir of Greed
Artist=Endless (Can)
Album=Life Drawing
Tracknumber=02
Year=1995
Genre=Metal



Register


Go to the top of the page
  Insert nick Quick quote
+Quote Post

Reply to this topicStart new topic
2 User(s) are reading this topic (2 Guests and 0 Anonymous Users)
0 Members:

 



- Lo-Fi Version Support form
Copyrights and abuse reports form
Time is now: 19th February 2019 - 17:38:52