Welcome Guest ( Log In | Register )

 
Reply to this topicStart new topic
> Rapes - Restriction [ep] (1997), Thrash Metal
post Feb 9 2019, 13:39:04
Post #1

Подвал
**************
Group: Металариец
Posts: 13,279
Releases: 7497
From: Far East (Khabarovsk)
On Forums: 10 years 2 months
Thanks: 71365 time(s)
Russian Federation


(IMG:http://metalarea.org/images/audiocovers/2019_Feb/acov_tid317338_thumb.PNG)

*Artist: Rapes
*Album: Restriction [ep]
*Year: 1997
*Genre: Thrash Metal
*Country: Japan (IMG:http://metalarea.org/forum/style_images/flags/Japan.png)
*Format: mp3@CBR192kbps
*Size: 34MB

Tracklist:
1. Intro... Sleep... / Disintegration 05:18
2. Leave To Desire 04:37
3. Unjust Brain 03:38
4. Fake A Shadow 05:32
5. Futurarless Sleep 05:26
******************************
Total playing time: 24:31

(IMG:http://metalarea.org/images/youtube.png)

Technical info
(IMG:http://metalarea.org/images/spectrogram/2019_Feb/00ffe11b85b3c7b4c83828977163db1c.png)
Input File: 02-Leave To Desire.mp3
Channels : 2
Sample Rate : 44100
Precision : 16-bit
Duration : 00:04:37.83 = 12252083 samples = 20836.9 CDDA sectors
File Size : 6.67M
Bit Rate : 192k
Sample Encoding: MPEG audio (layer I, II or III)
Comments :
Title=Leave To Desire
Artist=Rapes (Jap)
Album=Restriction
Tracknumber=02
Year=1997
Genre=Thrash Metal



Register


Go to the top of the page
  Insert nick Quick quote
+Quote Post

Reply to this topicStart new topic
1 User(s) are reading this topic (1 Guests and 0 Anonymous Users)
0 Members:

 



- Lo-Fi Version Support form
Copyrights and abuse reports form
Time is now: 24th April 2019 - 13:00:02