Welcome Guest ( Log In | Register )

> Правила / Rules

Тут только для чтения лежат низкобитрейтные (<192kbps) релизы, для которых есть аналоги в высокобитрейтных форумах.

Here goes (and stand in read only mode) low bitrate releases (<192kbps) which were already replaced by high bitrate releases in corresponding forums.

Причина закрытия (DarkHorde 15-02-2019): Encoffinized - Chambers Of Deprivation (2019)
 
Closed TopicStart new topic
> Encoffinized - Chambers Of Deprivation (2019), Death Metal/Grindcore
post Feb 9 2019, 17:56:40
Post #1

Мегаманьяк
***********
Group: Металариец
Posts: 1,703
Releases: 1474
From: Одесса
On Forums: 10 years 10 months
Thanks: 12013 time(s)
Ukraine


(IMG:http://metalarea.org/images/audiocovers/2019_Feb/acov_tid317350_thumb.jpg)

*Artist: Encoffinized
*Album: Chambers Of Deprivation
*Year: 2019
*Genre: Death Metal/Grindcore
*Country: United States (IMG:http://metalarea.org/forum/style_images/flags/United%20States.png)
*Format: mp3@CBR128kbps (IMG:http://metalarea.org/images/bit_low.gif)
*Size: 22MB

Tracklist:
1. Rotting Away 04:20
2. Interdimensional Abominations of The Dark Abyss 03:03
3. Metamorphic Putrefaction 03:32
4. Crushed at the Left Hand 03:25
5. Funeral 03:32
6. Stillborn Embryonic Death 02:08
7. Chambers of Deprivation 02:39
******************************
Total playing time: 22:39



Extended info
Line - up:

Max "Rutan" Baxter - Unknown
Chris "Father Mullet" Johnson - Unknown

(IMG:https://www.metal-archives.com/images/3/5/4/0/3540424828_photo.jpg?5612)


Technical info
(IMG:http://metalarea.org/images/spectrogram/2019_Feb/d2e14f680162127a3f8f69bbc879d5a2.png)
Input File: 02 Interdimensional Abominations of The Dark Abyss.mp3
Channels : 2
Sample Rate : 44100
Precision : 16-bit
Duration : 00:03:03.67 = 8099627 samples = 13774.9 CDDA sectors
File Size : 2.94M
Bit Rate : 128k
Sample Encoding: MPEG audio (layer I, II or III)
Comments :
Title=Interdimensional Abominations Of The Dark Abyss
Artist=Encoffinized
Album=Chambers Of Deprivation
Tracknumber=2
Year=2019
Genre=Death Metal / Grindcore



Register


Thanks:
Go to the top of the page
  Insert nick Quick quote
+Quote Post

Причина закрытия (DarkHorde 15-02-2019): Encoffinized - Chambers Of Deprivation (2019)
Closed TopicStart new topic
1 User(s) are reading this topic (1 Guests and 0 Anonymous Users)
0 Members:

 



- Lo-Fi Version Support form
Copyrights and abuse reports form
Time is now: 24th April 2019 - 12:56:15