Welcome Guest ( Log In | Register )

> Endless Floods - Circle The Gold (2019), Sludge/Drone/Doom Metal (D4)
post Feb 9 2019, 20:09:55
Post #1

Каждое ваше "Спасибо" помогает мне понять, что я делаю новости не напрасно.
***********
Group: Металариец
Posts: 1,892
Releases: 1654
From: Одесса
On Forums: 11 years 2 months
Thanks: 13935 time(s)
Ukraine


(IMG:http://metalarea.org/images/audiocovers/2019_Feb/acov_tid317357_thumb.jpg)

*Artist: Endless Floods
*Album: Circle The Gold
*Year: 2019
*Genre: Sludge/Drone/Doom Metal
*Country: France (IMG:http://metalarea.org/forum/style_images/flags/France.png)
*Format: mp3@CBR128kbps (IMG:http://metalarea.org/images/bit_low.gif)
*Size: 38MB

Tracklist:
1. Circle the Gold 18:26
2. Seeds 20:31
******************************
Total playing time: 38:57



Extended info
Line - up:

Stéphane - Bass, Vocals (Monarch)
Benjamin - Drums (Monarch (live), Amarzakill, Futurons, Rip it After Me, ex-Marble Chariot, ex-Antifun Krieg)
Simon - Guitars
Jérôme Album - Guitars

(IMG:https://f4.bcbits.com/img/0012273885_10.jpg)


Technical info
(IMG:http://metalarea.org/images/spectrogram/2019_Feb/872c9d5cb647e3e2cbfce699e8feb4f4.png)
Input File: 01 - Circle The Gold.mp3
Channels : 2
Sample Rate : 44100
Precision : 16-bit
Duration : 00:18:26.19 = 48782891 samples = 82964.1 CDDA sectors
File Size : 17.7M
Bit Rate : 128k
Sample Encoding: MPEG audio (layer I, II or III)
Comments :
Title=Circle The Gold
Artist=Endless Floods
Album=Circle The Gold
Tracknumber=1
Year=2019
Genre=Sludge / Drone / Doom Metal



Register


Thanks:
(2) marilin, Rosen,
Go to the top of the page
  Insert nick Quick quote
+Quote Post
 
Start new topic
Replies (1 - 2)
post Jun 4 2019, 12:07:34
Post #2

Group: Подсевший
Posts: 35
Releases: 0
On Forums: 6 years 1 month
Thanks: 7 time(s)
India


Please reupload this. Thanks!!! (IMG:style_emoticons/default/smile1.gif)
Go to the top of the page
  Insert nick Quick quote
+Quote Post
post Jun 4 2019, 12:23:29
Post #3


Group Icon
Group: S-moderation team
Posts: 11,270
Releases: 1438
From: Zagreb
On Forums: 8 years 5 months
Thanks: 48513 time(s)
Croatia


Register


Thanks:
Go to the top of the page
  Insert nick Quick quote
+Quote Post

Reply to this topicStart new topic
1 User(s) are reading this topic (1 Guests and 0 Anonymous Users)
0 Members:

 



- Lo-Fi Version Support form
Copyrights and abuse reports form
Time is now: 17th August 2019 - 17:52:54