Welcome Guest ( Log In | Register )

 
Reply to this topicStart new topic
> Endless Floods - Circle The Gold (2019), Sludge/Drone/Doom Metal (D4)
post Feb 9 2019, 20:09:55
Post #1

Мегаманьяк
***********
Group: Металариец
Posts: 1,572
Releases: 1352
From: Одесса
On Forums: 10 years 8 months
Thanks: 10834 time(s)
Ukraine


(IMG:http://metalarea.org/images/audiocovers/2019_Feb/acov_tid317357_thumb.jpg)

*Artist: Endless Floods
*Album: Circle The Gold
*Year: 2019
*Genre: Sludge/Drone/Doom Metal
*Country: France (IMG:http://metalarea.org/forum/style_images/flags/France.png)
*Format: mp3@CBR128kbps (IMG:http://metalarea.org/images/bit_low.gif)
*Size: 38MB

Tracklist:
1. Circle the Gold 18:26
2. Seeds 20:31
******************************
Total playing time: 38:57



Extended info
Line - up:

Stéphane - Bass, Vocals (Monarch)
Benjamin - Drums (Monarch (live), Amarzakill, Futurons, Rip it After Me, ex-Marble Chariot, ex-Antifun Krieg)
Simon - Guitars
Jérôme Album - Guitars

(IMG:https://f4.bcbits.com/img/0012273885_10.jpg)


Technical info
(IMG:http://metalarea.org/images/spectrogram/2019_Feb/872c9d5cb647e3e2cbfce699e8feb4f4.png)
Input File: 01 - Circle The Gold.mp3
Channels : 2
Sample Rate : 44100
Precision : 16-bit
Duration : 00:18:26.19 = 48782891 samples = 82964.1 CDDA sectors
File Size : 17.7M
Bit Rate : 128k
Sample Encoding: MPEG audio (layer I, II or III)
Comments :
Title=Circle The Gold
Artist=Endless Floods
Album=Circle The Gold
Tracknumber=1
Year=2019
Genre=Sludge / Drone / Doom Metal



Register


Thanks:
(1) marilin,
Go to the top of the page
  Insert nick Quick quote
+Quote Post

Reply to this topicStart new topic
2 User(s) are reading this topic (2 Guests and 0 Anonymous Users)
0 Members:

 



- Lo-Fi Version Support form
Copyrights and abuse reports form
Time is now: 19th February 2019 - 18:31:27