Welcome Guest ( Log In | Register )

> Meatgrinder - Соцпакет (2018), Progressive Death Metal
post Feb 9 2019, 23:54:26
Post #1

Правь статус, ####!111
**************
Group: Металариец
Posts: 17,778
Releases: 12051
From: Г.Харьков
On Forums: 7 years 2 months
Thanks: 202418 time(s)
Unknown


(IMG:https://metalarea.org/images/audiocovers/2019_Feb/acov_tid317363_thumb.jpg)

*Artist: Meatgrinder
*Album: Соцпакет
*Year: 2018
*Genre: Progressive Death Metal
*Country: Russian Federation (IMG:https://metalarea.org/forum/style_images/flags/Russian%20Federation.png)
*Format: mp3@CBR320kbps
*Size: 78MB

Tracklist:
1. Аневризма 03:30
2. Н.Е.М. 04:11
3. Прихвостни смерти 03:31
4. Первоисточник 03:40
5. Прятки 03:41
6. Большинство не может ошибаться 02:39
7. М.О.Р.Г. 04:04
8. Мясорубка 03:36
9. Ты - человек 04:21
******************************
Total playing time: 33:13


Preview 2

Extended info


Technical info
(IMG:https://metalarea.org/images/spectrogram/2019_Feb/ec2e78682d2a9921c5f4b1bf6f1ac7d0.png)
Input File: 04 Первоисточник.mp3
Channels : 2
Sample Rate : 44100
Precision : 16-bit
Duration : 00:03:40.09 = 9706101 samples = 16507 CDDA sectors
File Size : 8.95M
Bit Rate : 325k
Sample Encoding: MPEG audio (layer I, II or III)
Comments :
Title=Первоисточник
Artist=MEATGRINDER
Album=Соцпакет
Tracknumber=4
Year=2018



Register


Go to the top of the page
  Insert nick Quick quote
+Quote Post
 
Start new topic
Replies (1 - 5)
post Feb 10 2019, 11:32:55
Post #2

Три Литра
***
Group: Завсегдатай
Posts: 215
Releases: 0
From: Минск
On Forums: 8 years 2 months
Thanks: 138 time(s)
Russian Federation


Я б сказал - окуенно!
Но, блин, вокал... Этакий нашенский крикун. Ну хрен его знает, ну... Почему бы глоул нормальный не поставить.
Go to the top of the page
  Insert nick Quick quote
+Quote Post
post Feb 11 2019, 07:53:49
Post #3

Литр
*
Group: Подсевший
Posts: 64
Releases: 0
On Forums: 2 years 3 months
Thanks: 18 time(s)
Russian Federation


Да, очень круто сыграно! А вокал как будто не очень подходит к музыке - думаю, тут более панковский уместнее был бы
Go to the top of the page
  Insert nick Quick quote
+Quote Post
post Feb 11 2019, 08:07:50
Post #4

Штопор Давай
***
Group: Завсегдатай
Posts: 269
Releases: 3
On Forums: 6 years 7 months
Thanks: 96 time(s)
Russian Federation


Крутой альбом, с удовольствием слушаю и осознаю что мне нравятся слова в текстах и музыка, все гармонично.Очень редко в русскоязычной музыке так получается.Молодцы Meatgrinder
Go to the top of the page
  Insert nick Quick quote
+Quote Post
post Feb 16 2019, 16:19:01
Post #5

Правь статус, ####!111
**************
Group: Металариец
Posts: 2,031
Releases: 0
From: Мытищи
On Forums: 11 years 4 months
Thanks: 1153 time(s)
Russian Federation


Да нормальный вокал, текст разборчив, что уже большой плюс)

Полный альбом вятской мясорубки в тубе:
Go to the top of the page
  Insert nick Quick quote
+Quote Post
post Mar 12 2019, 09:57:48
Post #6

Schuldinerist
**************
Group: Металариец
Posts: 10,249
Releases: 33
From:
On Forums: 12 years 3 months
Thanks: 6386 time(s)
Russian Federation


Ну, вот зачем они вставили в конце кавер из "Электроника"? "Ты - человек" - лучшая вещь на альбоме.
Но и сразу на контрасте понимаешь, где мелодия и талант, а где их нет.
7+/10
Go to the top of the page
  Insert nick Quick quote
+Quote Post

Reply to this topicStart new topic
2 User(s) are reading this topic (2 Guests and 0 Anonymous Users)
0 Members:

 



- Lo-Fi Version Support form
Copyrights and abuse reports form
Time is now: 20th July 2019 - 05:57:03