Welcome Guest ( Log In | Register )

> Правила / Rules

Тут только для чтения лежат низкобитрейтные (<192kbps) релизы, для которых есть аналоги в высокобитрейтных форумах.

Here goes (and stand in read only mode) low bitrate releases (<192kbps) which were already replaced by high bitrate releases in corresponding forums.

> Ad Cinerem - Of Earth And Ashes [ep] (2019), Blackened Doom Metal (D4)
post Feb 10 2019, 00:44:25
Post #1

Литр
*
Group: Подсевший
Posts: 54
Releases: 12
On Forums: 11 months 1 week
Thanks: 128 time(s)
Sweden


(IMG:https://metalarea.org/images/audiocovers/2019_Feb/acov_tid317365_thumb.jpg)

*Artist: Ad Cinerem
*Album: Of Earth And Ashes [ep]
*Year: 2019
*Genre: Blackened Doom Metal
*Country: Germany (IMG:https://metalarea.org/forum/style_images/flags/Germany.png)
*Format: mp3@CBR128kbps (IMG:https://metalarea.org/images/bit_low.gif)
*Size: 26MB

Tracklist:
01. Fields of Memory 5:47
02. At the Edge of Yesterday 11:07
03. Death of a Wanderer 11:33
******************************
Total playing time: 28:27

Technical info
(IMG:https://metalarea.org/images/spectrogram/2019_Feb/449d97c75a82f69633e71887b961e701.png)
Input File: 01. Fields Of Memory.mp3
Channels : 2
Sample Rate : 44100
Precision : 16-bit
Duration : 00:05:47.62 = 15329910 samples = 26071.3 CDDA sectors
File Size : 5.57M
Bit Rate : 128k
Sample Encoding: MPEG audio (layer I, II or III)
Comments :
Title=Fields Of Memory
Artist=Ad Cinerem
Album=Of Earth And Ashes (EP)
Tracknumber=01
Year=2019



Register


Go to the top of the page
  Insert nick Quick quote
+Quote Post
 
Start new topic
Replies (1 - 3)
post Feb 10 2019, 07:16:24
Post #2

Dr.
**************
Group: Металариец
Posts: 5,302
Releases: 0
From: Primorye.ru
On Forums: 8 years 3 months
Thanks: 1074 time(s)
Russian Federation




Thanks:
Go to the top of the page
  Insert nick Quick quote
+Quote Post
post Feb 12 2019, 12:01:53    Сейчас играет: Mons Veneris - Awakening My Dark Soul - Part III
Post #3

antithesis
**************
Group: Металариец
Posts: 2,692
Releases: 30
From: VRN
On Forums: 9 years 1 month
Thanks: 1543 time(s)
Russian Federation


mirror, pls
Go to the top of the page
  Insert nick Quick quote
+Quote Post
post Feb 12 2019, 12:04:56
Post #4

Правь статус, ####!111
**************
Group: Металариец
Posts: 41,188
Releases: 605
On Forums: 10 years 1 month
Thanks: 31836 time(s)
Russian Federation


Register


Thanks:
Go to the top of the page
  Insert nick Quick quote
+Quote Post

Причина закрытия (Абигор 20-03-2019): Ad Cinerem - Of Earth And Ashes [ep] (2019)
Closed TopicStart new topic
2 User(s) are reading this topic (2 Guests and 0 Anonymous Users)
0 Members:

 



- Lo-Fi Version Support form
Copyrights and abuse reports form
Time is now: 18th July 2019 - 12:31:17