Welcome Guest ( Log In | Register )

 
Reply to this topicStart new topic
> Toolbox Terror - Unidentified Flesh Object (2019), Death Metal
post Feb 10 2019, 06:37:40
Post #1

Serial Uploader
Group Icon
Group: V.I.P
Posts: 35,472
Releases: 33684
From: Lithuania
On Forums: 11 years 2 weeks
Thanks: 386788 time(s)
Lithuania


(IMG:http://metalarea.org/images/audiocovers/2019_Feb/acov_tid317369_thumb.jpg)

*Artist: Toolbox Terror
*Album: Unidentified Flesh Object
*Year: 2019
*Genre: Death Metal
*Country: Italy (IMG:http://metalarea.org/forum/style_images/flags/Italy.png)
*Format: mp3@CBR320kbps
*Size: 110MB

Tracklist:
01. Violent Behavior
02. Toolbox Terror
03. Maniac
04. Not Dead Yet
05. Hanged, Drawn and Quartered
06. Letheon
07. Doppelganger
08. Bloodbath
09. Chop Until You Drop
10. U.F.O.
11. All I See Are Corpses
12. HeritageD
******************************
Total playing time: 47:38

(IMG:http://metalarea.org/images/youtube.png)

Technical info
(IMG:http://metalarea.org/images/spectrogram/2019_Feb/e0fe647d61ffcbbf99f36201c750d48e.png)
Input File: 02. Toolbox Terror.mp3
Channels : 2
Sample Rate : 44100
Precision : 16-bit
Duration : 00:04:00.81 = 10619853 samples = 18061 CDDA sectors
File Size : 9.67M
Bit Rate : 321k
Sample Encoding: MPEG audio (layer I, II or III)
Comments :
Title=Toolbox Terror
Artist=Toolbox Terror
Album=Unidentified Flesh Object
Tracknumber=2/12
Year=2019



Register


Go to the top of the page
  Insert nick Quick quote
+Quote Post

Reply to this topicStart new topic
1 User(s) are reading this topic (1 Guests and 0 Anonymous Users)
0 Members:

 



- Lo-Fi Version Support form
Copyrights and abuse reports form
Time is now: 25th June 2019 - 20:51:08