Welcome Guest ( Log In | Register )

> Releases Upload / Добавление релизов

Добавить релиз тут / Click here to add release
Рекомендованные обменники / Recommended file shares

 
Reply to this topicStart new topic
> Crown For One - Cities Of Dust [ep] (2019), Black Metal
post Feb 10 2019, 08:08:35
Post #1

Аннигилятор пивА
Group Icon
Group: V.I.P
Posts: 52,279
Releases: 16524
From: Koenigsberg - TILZIT
On Forums: 12 years 8 months
Thanks: 357942 time(s)
Russian Federation


(IMG:https://metalarea.org/images/audiocovers/2019_Feb/acov_tid317374_thumb.jpg)

*Artist: Crown For One
*Album: Cities Of Dust [ep]
*Year: 2019
*Genre: Black Metal
*Country: Belarus (IMG:https://metalarea.org/forum/style_images/flags/Belarus.png)
*Format: mp3@CBR320kbps
*Size: 37MB

Tracklist:
1. Cities Of Dust 03:54
2. This Forest Watches 04:03
3. Sand Surfer 03:29
4. When Endlessness Ends 04:14
******************************
Total playing time: 15:40



Technical info
(IMG:https://metalarea.org/images/spectrogram/2019_Feb/077371843e550f6a63695e75f9d86e86.png)
Input File: Crown For One - Cities Of Dust - 03 Sand Surfer.mp3
Channels : 2
Sample Rate : 44100
Precision : 16-bit
Duration : 00:03:29.23 = 9226867 samples = 15692 CDDA sectors
File Size : 8.53M
Bit Rate : 326k
Sample Encoding: MPEG audio (layer I, II or III)
Comments :
Title=Sand Surfer
Artist=Crown For One
Album=Cities Of Dust
Tracknumber=3
Year=2019



Register


Go to the top of the page
  Insert nick Quick quote
+Quote Post

Reply to this topicStart new topic
1 User(s) are reading this topic (1 Guests and 0 Anonymous Users)
0 Members:

 



- Lo-Fi Version Support form
Copyrights and abuse reports form
Time is now: 19th February 2019 - 18:54:15