Welcome Guest ( Log In | Register )

> Releases Upload / Добавление релизов

Добавить релиз тут / Click here to add release
Рекомендованные обменники / Recommended file shares

> Infernal Rites - My Immortal Coffin (2007), Black Metal
post Feb 10 2019, 08:19:49
Post #1


Group Icon
Group: S-moderation team
Posts: 8,800
Releases: 1429
On Forums: 7 years 11 months
Thanks: 41868 time(s)
Croatia


(IMG:http://metalarea.org/images/audiocovers/2019_Feb/acov_tid317375_thumb.jpg)

*Artist: Infernal Rites
*Album: My Immortal Coffin
*Year: 2007
*Genre: Black Metal
*Country: Germany (IMG:http://metalarea.org/forum/style_images/flags/Germany.png)
*Format: mp3@VBR312kbps
*Size: 78MB

Tracklist:
1. Soldiers of Doom 02:46
2. Into the Flames 06:01
3. Demonic Calls 05:51
4. My Immortal Coffin 05:53
5. Infernal 03:34
6. Thrash'n Gutz 03:47
7. Beyond Your Flesh 05:29
******************************
Total playing time: 33:21

Technical info
(IMG:http://metalarea.org/images/spectrogram/2019_Feb/d0168d44fd187e81db2030050c4fafdc.png)
Input File: 04_infernal_rites-my_immortal_coffin-bf.mp3
Channels : 2
Sample Rate : 44100
Precision : 16-bit
Duration : 00:05:53.72 = 15599228 samples = 26529.3 CDDA sectors
File Size : 14.0M
Bit Rate : 316k
Sample Encoding: MPEG audio (layer I, II or III)
Comments :
Title=My Immortal Coffin
Artist=Infernal Rites
Album=My Immortal Coffin
Tracknumber=4
Year=2007
Genre=Black Metal



Register


Go to the top of the page
  Insert nick Quick quote
+Quote Post
 
Start new topic
Replies (1 - 1)
post Feb 11 2019, 16:12:45
Post #2

...Only Death Is Real...
**************
Group: Металариец
Posts: 2,735
Releases: 15
On Forums: 8 years 7 months
Thanks: 1694 time(s)
Antarctica


Go to the top of the page
  Insert nick Quick quote
+Quote Post

Reply to this topicStart new topic
1 User(s) are reading this topic (1 Guests and 0 Anonymous Users)
0 Members:

 



- Lo-Fi Version Support form
Copyrights and abuse reports form
Time is now: 21st February 2019 - 10:47:33