Welcome Guest ( Log In | Register )

> Releases Upload / Добавление релизов

Добавить релиз тут / Click here to add release
Рекомендованные обменники / Recommended file shares

> Zordah - Fury (2019), Black Metal
post Feb 10 2019, 08:21:55
Post #1

Аннигилятор пивА
Group Icon
Group: V.I.P
Posts: 52,222
Releases: 16496
From: Koenigsberg - TILZIT
On Forums: 12 years 8 months
Thanks: 357265 time(s)
Russian Federation


(IMG:https://metalarea.org/images/audiocovers/2019_Feb/acov_tid317376_thumb.jpg)

*Artist: Zordah
*Album: Fury
*Year: 2019
*Genre: Black Metal
*Country: Hungary (IMG:https://metalarea.org/forum/style_images/flags/Hungary.png)
*Format: mp3@CBR320kbps
*Size: 74MB

Tracklist:
1. Ravings 03:32
2. Fury 05:12
3. Revenge 04:12
4. Utopia 05:15
5. Eradication 03:49
6. Barrens 05:08
7. Creation 04:29
******************************
Total playing time: 31:37




Extended info


Technical info
(IMG:https://metalarea.org/images/spectrogram/2019_Feb/5279a18f643d5e972a7965f0c99916b6.png)
Input File: Zordah - Fury - 03 Revenge.mp3
Channels : 2
Sample Rate : 44100
Precision : 16-bit
Duration : 00:04:12.07 = 11116243 samples = 18905.2 CDDA sectors
File Size : 10.2M
Bit Rate : 325k
Sample Encoding: MPEG audio (layer I, II or III)
Comments :
Title=Revenge
Artist=Zordah
Album=Fury
Tracknumber=3
Year=2019



Register


Go to the top of the page
  Insert nick Quick quote
+Quote Post
 
Start new topic
Replies (1 - 3)
post Feb 10 2019, 08:58:45
Post #2
BAN
Banned till
Feb 20 2019, 13:33:44



поют хорошо, а вот музыкальная часть скушновата.
а ведь потенциал есть.
Go to the top of the page
  Insert nick Quick quote
+Quote Post
post Feb 10 2019, 09:00:17
Post #3

Аннигилятор пивА
Group Icon
Group: V.I.P
Posts: 52,222
Releases: 16496
From: Koenigsberg - TILZIT
On Forums: 12 years 8 months
Thanks: 357265 time(s)
Russian Federation


mirror
Register


Go to the top of the page
  Insert nick Quick quote
+Quote Post
post Feb 10 2019, 18:04:47
Post #4

Правь статус, ####!111
**************
Group: Металариец
Posts: 2,101
Releases: 0
From: Dnipro
On Forums: 10 years 7 months
Thanks: 535 time(s)
Ukraine


ЦИТАТА(garmonbozia @ Feb 10 2019, 09:58:45) *
поют хорошо, а вот музыкальная часть скушновата.

По моему тут все очень плохо и надежды нет.
Go to the top of the page
  Insert nick Quick quote
+Quote Post

Reply to this topicStart new topic
2 User(s) are reading this topic (2 Guests and 0 Anonymous Users)
0 Members:

 



- Lo-Fi Version Support form
Copyrights and abuse reports form
Time is now: 17th February 2019 - 00:41:09