Welcome Guest ( Log In | Register )

> Releases Upload / Добавление релизов

Добавить релиз тут / Click here to add release
Рекомендованные обменники / Recommended file shares

 
Reply to this topicStart new topic
> Ignis Fatuus - Pluję Na Twój Grób (2014), Black Metal
post Feb 10 2019, 08:44:10
Post #1


Group Icon
Group: S-moderation team
Posts: 8,789
Releases: 1429
On Forums: 7 years 11 months
Thanks: 41816 time(s)
Croatia


(IMG:http://metalarea.org/images/audiocovers/2019_Feb/acov_tid317377_thumb.jpg)

*Artist: Ignis Fatuus
*Album: Pluję Na Twój Grób
*Year: 2014
*Genre: Black Metal
*Country: Poland (IMG:http://metalarea.org/forum/style_images/flags/Poland.png)
*Format: mp3@CBR320kbps
*Size: 65MB

Tracklist:
1. Antyklech 04:28
2. Czas trwogi 02:46
3. Pluję na twój grób 04:00
4. MOR 02:48
5. Czarny tron 03:15
6. Wataha 04:30
7. Północna strona Karpat 03:25
8. Matka Ziemia 05:03
******************************
Total playing time: 30:15

Extended info
CD released by Old Temple. Scene rip.


Technical info
(IMG:http://metalarea.org/images/spectrogram/2019_Feb/2fbd079a603ebb5c7e00ddf1931f76d4.png)
Input File: 04-ignis_fatuus-mor-a1e85fcf.mp3
Channels : 2
Sample Rate : 44100
Precision : 16-bit
Duration : 00:02:48.97 = 7451665 samples = 12672.9 CDDA sectors
File Size : 6.95M
Bit Rate : 329k
Sample Encoding: MPEG audio (layer I, II or III)
Comments :
Title=MOR
Artist=Ignis Fatuus
Album=Pluje Na Twoj Grob
Tracknumber=4/8
Year=2018
Genre=Metal



Register


Go to the top of the page
  Insert nick Quick quote
+Quote Post

Reply to this topicStart new topic
2 User(s) are reading this topic (2 Guests and 0 Anonymous Users)
0 Members:

 



- Lo-Fi Version Support form
Copyrights and abuse reports form
Time is now: 19th February 2019 - 17:37:14