Welcome Guest ( Log In | Register )

 
Reply to this topicStart new topic
> Memoria Vetus - Rehearsal 1995 [demo] (1995), Black Metal
post Feb 10 2019, 09:17:33
Post #1


Group Icon
Group: S-moderation team
Posts: 11,119
Releases: 1438
From: Zagreb
On Forums: 8 years 4 months
Thanks: 47669 time(s)
Croatia


(IMG:http://metalarea.org/images/audiocovers/2019_Feb/acov_tid317378_thumb.jpg)

*Artist: Memoria Vetus
*Album: Rehearsal 1995 [demo]
*Year: 1995
*Genre: Black Metal
*Country: Poland (IMG:http://metalarea.org/forum/style_images/flags/Poland.png)
*Format: mp3@CBR320kbps
*Size: 81MB

Tracklist:
01 Noc w Zimowym Lesie 04:37
02 Święte Wojny 05:05
03 Sąd Ostateczny 05:58
04 Golden Age 06:05
05 Night in the Wintry Forest 04:33
06 Instrumental 02:17
07 Empire of Atlantis 06:44
******************************
Total playing time: 35:19

Extended info
Memoria Vetus was a very obscure Polish Black Metal band active in the '90s. I got their demos from a friend. Unfortunately, no cover artwork so I just put logo instead. I'm not sure if there even were any cover artworks for their rehearsals. Fifth track ends abruptly - not sure why. Sorry but I can't find better version/rip.
This is True Polish Black Metal. Enjoy!


Technical info
(IMG:http://metalarea.org/images/spectrogram/2019_Feb/73dccd88c22250a38745fbdf7d86f340.png)
Input File: 05 - Night in the Wintry Forest.mp3
Channels : 2
Sample Rate : 44100
Precision : 16-bit
Duration : 00:04:33.79 = 12073963 samples = 20534 CDDA sectors
File Size : 11.0M
Bit Rate : 320k
Sample Encoding: MPEG audio (layer I, II or III)
Comments :
Title=Night in the Wintry Forest
Artist=Memoria Vetus
Album=Rehearsal 1995
Tracknumber=5
Year=1995
Genre=Polish Black Metal



Register


Go to the top of the page
  Insert nick Quick quote
+Quote Post

Reply to this topicStart new topic
2 User(s) are reading this topic (2 Guests and 0 Anonymous Users)
0 Members:

 



- Lo-Fi Version Support form
Copyrights and abuse reports form
Time is now: 17th July 2019 - 13:48:01