Welcome Guest ( Log In | Register )

> Releases Upload / Добавление релизов

Добавить релиз тут / Click here to add release
Рекомендованные обменники / Recommended file shares

> Necrofier - Visions In Fire [ep] (2018), Black Metal
post Feb 10 2019, 09:27:49
Post #1

Аннигилятор пивА
Group Icon
Group: V.I.P
Posts: 52,277
Releases: 16523
From: Koenigsberg - TILZIT
On Forums: 12 years 8 months
Thanks: 357926 time(s)
Russian Federation


(IMG:https://metalarea.org/images/audiocovers/2019_Feb/acov_tid317379_thumb.jpg)

*Artist: Necrofier
*Album: Visions In Fire [ep]
*Year: 2018
*Genre: Black Metal
*Country: United States (IMG:https://metalarea.org/forum/style_images/flags/United%20States.png)
*Format: mp3@CBR320kbps
*Size: 26MB

Tracklist:
1. Visions in Fire 04:03
2. Shadow Winds 03:53
3. Raise the Dead 03:57
******************************
Total playing time: 11:53




Extended info
Mat Aleman - Bass (Oceans of Slumber)
Dobber Beverly - Drums (Demoniacal Genuflection, Infernal Dominion, Ingurgitate, Insect Warfare, Oceans of Slumber, Sect of Execration, War Master, ex-Braced for Nails, ex-Images of Violence, ex-Manticore, ex-Viral Load, ex-Inextricable Entrails)
Christian Larson - Vocals, Guitars (Venomous Maximus, ex-Eternal Champion)


Technical info
(IMG:https://metalarea.org/images/spectrogram/2019_Feb/0c636f21d3f69c96957aad3e8774c316.png)
Input File: 02-necrofier-shadow_winds.mp3
Channels : 2
Sample Rate : 44100
Precision : 16-bit
Duration : 00:03:53.14 = 10281518 samples = 17485.6 CDDA sectors
File Size : 9.50M
Bit Rate : 326k
Sample Encoding: MPEG audio (layer I, II or III)
Comments :
Title=Shadow Winds
Artist=Necrofier
Album=Visions In Fire
Tracknumber=2/3
Year=2018
Genre=Black Metal



Register


Go to the top of the page
  Insert nick Quick quote
+Quote Post
 
Start new topic
Replies (1 - 1)
post Feb 10 2019, 09:42:48
Post #2

Аннигилятор пивА
Group Icon
Group: V.I.P
Posts: 52,277
Releases: 16523
From: Koenigsberg - TILZIT
On Forums: 12 years 8 months
Thanks: 357926 time(s)
Russian Federation


в жанр можно мелодик добавить, чувствуется влияние диссекшн стайла
Go to the top of the page
  Insert nick Quick quote
+Quote Post

Reply to this topicStart new topic
2 User(s) are reading this topic (2 Guests and 0 Anonymous Users)
0 Members:

 



- Lo-Fi Version Support form
Copyrights and abuse reports form
Time is now: 19th February 2019 - 17:38:02