Welcome Guest ( Log In | Register )

 
Reply to this topicStart new topic
> Memoria Vetus - Rehearsal 1999 [demo] (1999), Black Metal
post Feb 10 2019, 09:34:44
Post #1


Group Icon
Group: S-moderation team
Posts: 11,270
Releases: 1438
From: Zagreb
On Forums: 8 years 5 months
Thanks: 48565 time(s)
Croatia


(IMG:http://metalarea.org/images/audiocovers/2019_Feb/acov_tid317381_thumb.jpg)

*Artist: Memoria Vetus
*Album: Rehearsal 1999 [demo]
*Year: 1999
*Genre: Black Metal
*Country: Poland (IMG:http://metalarea.org/forum/style_images/flags/Poland.png)
*Format: mp3@CBR320kbps
*Size: 29MB

Tracklist:
01 Untitled 05:39
02 Untitled 02:23
03 Untitled 01:24
04 Noc w Zimowym Lesie (Remix zerwany) 03:22
******************************
Total playing time: 12:48

Extended info
Another rehearsal from Memoria Vetus that I managed to get. Info about it is very hard to get to - so if you have any info about cover artwork or track titles or anything else, please leave a comment about it in this topic. Last song for whichever reason ends abruptly but I don't believe we'll ever find a better rip than this so take it or leave it.
Excellent band, highly recommended!


Technical info
(IMG:http://metalarea.org/images/spectrogram/2019_Feb/89c347aff771dd249b4e494d1e31d38e.png)
Input File: 01 Untitled.mp3
Channels : 2
Sample Rate : 44100
Precision : 16-bit
Duration : 00:05:39.01 = 14950473 samples = 25426 CDDA sectors
File Size : 13.6M
Bit Rate : 320k
Sample Encoding: MPEG audio (layer I, II or III)
Comments :
Title=Untitled
Artist=Memoria Vetus
Album=Rehearsal 1999
Tracknumber=1
Year=1999
Genre=Polish Black Metal



Register


Go to the top of the page
  Insert nick Quick quote
+Quote Post

Reply to this topicStart new topic
1 User(s) are reading this topic (1 Guests and 0 Anonymous Users)
0 Members:

 



- Lo-Fi Version Support form
Copyrights and abuse reports form
Time is now: 19th August 2019 - 17:26:10