Welcome Guest ( Log In | Register )

> Insurrection - Umnikelo [ep] (1996), Death Metal (D)
post Feb 10 2019, 11:08:43
Post #1

Подвал
**************
Group: Металариец
Posts: 13,279
Releases: 7497
From: Far East (Khabarovsk)
On Forums: 10 years 2 months
Thanks: 71365 time(s)
Russian Federation


(IMG:http://metalarea.org/images/audiocovers/2019_Feb/acov_tid317385_thumb.PNG)

*Artist: Insurrection
*Album: Umnikelo [ep]
*Year: 1996
*Genre: Death Metal
*Country: South Africa (IMG:http://metalarea.org/forum/style_images/flags/South%20Africa.png)
*Format: mp3@CBR192kbps
*Size: 34MB

Tracklist:
1. Umnikelo 06:41
2. Ritual 04:54
3. Annointed In Blood 04:48
4. Inkosi Sikelel Ukufa 04:50
5. Freedom Fighters 03:35
******************************
Total playing time: 24:48



Technical info
(IMG:http://metalarea.org/images/spectrogram/2019_Feb/80e8bf51fad4611ce2cf9f977f98d874.png)
Input File: 01-Umnikelo.mp3
Channels : 2
Sample Rate : 44100
Precision : 16-bit
Duration : 00:06:41.08 = 17687408 samples = 30080.6 CDDA sectors
File Size : 9.63M
Bit Rate : 192k
Sample Encoding: MPEG audio (layer I, II or III)
Comments :
Title=Umnikelo
Artist=Insurrection
Album=Umnikelo (EP)
Tracknumber=01
Year=1996
Genre=22



Register


Go to the top of the page
  Insert nick Quick quote
+Quote Post
 
Start new topic
Replies (1 - 1)
post Feb 11 2019, 14:29:52
Post #2

Три Литра
***
Group: Завсегдатай
Posts: 296
Releases: 54
From: Rostov-on-Don, Russia
On Forums: 12 years 5 months
Thanks: 559 time(s)
Russian Federation


Go to the top of the page
  Insert nick Quick quote
+Quote Post

Reply to this topicStart new topic
1 User(s) are reading this topic (1 Guests and 0 Anonymous Users)
0 Members:

 



- Lo-Fi Version Support form
Copyrights and abuse reports form
Time is now: 24th April 2019 - 13:18:56