Welcome Guest ( Log In | Register )

> Insurrection - Good Day For Dying [demo] (1992), Death Metal (D)
post Feb 10 2019, 12:00:21
Post #1

Подвал
**************
Group: Металариец
Posts: 13,279
Releases: 7497
From: Far East (Khabarovsk)
On Forums: 10 years 2 months
Thanks: 71365 time(s)
Russian Federation


(IMG:http://metalarea.org/images/audiocovers/2019_Feb/acov_tid317390_thumb.jpg)

*Artist: Insurrection
*Album: Good Day For Dying [demo]
*Year: 1992
*Genre: Death Metal
*Country: South Africa (IMG:http://metalarea.org/forum/style_images/flags/South%20Africa.png)
*Format: mp3@CBR192kbps
*Size: 14MB

Tracklist:
1. I’m Your Suicide 04:39
2. Good Day For Dying 02:21
3. Absence Of Light 03:43
******************************
Total playing time: 10:43



Technical info
(IMG:http://metalarea.org/images/spectrogram/2019_Feb/e0c9c4944e7a14ad196f9a4ac4527950.png)
Input File: 01-I\'m Your Suicide.mp3
Channels : 2
Sample Rate : 44100
Precision : 16-bit
Duration : 00:04:39.04 = 12305444 samples = 20927.6 CDDA sectors
File Size : 6.70M
Bit Rate : 192k
Sample Encoding: MPEG audio (layer I, II or III)
Comments :
Title=I'm Your Suicide
Artist=Insurrection
Album=Good Day For Dying (Demo)
Tracknumber=01
Year=1992
Genre=22



Register


Go to the top of the page
  Insert nick Quick quote
+Quote Post
 
Start new topic
Replies (1 - 1)
post Feb 11 2019, 14:30:39
Post #2

Три Литра
***
Group: Завсегдатай
Posts: 296
Releases: 54
From: Rostov-on-Don, Russia
On Forums: 12 years 5 months
Thanks: 559 time(s)
Russian Federation


Go to the top of the page
  Insert nick Quick quote
+Quote Post

Reply to this topicStart new topic
1 User(s) are reading this topic (1 Guests and 0 Anonymous Users)
0 Members:

 



- Lo-Fi Version Support form
Copyrights and abuse reports form
Time is now: 24th April 2019 - 12:49:12