Welcome Guest ( Log In | Register )

 
Reply to this topicStart new topic
> Amen - Lsd - Live Suffer Die [demo] (1994), Death Metal (D7)
post Feb 10 2019, 12:13:05
Post #1

Подвал
**************
Group: Металариец
Posts: 13,565
Releases: 7694
From: Far East (Khabarovsk)
On Forums: 10 years 6 months
Thanks: 74101 time(s)
Russian Federation


(IMG:http://metalarea.org/images/audiocovers/2019_Feb/acov_tid317391_thumb.gif)

*Artist: Amen
*Album: Lsd - Live Suffer Die [demo]
*Year: 1994
*Genre: Death Metal
*Country: Croatia (IMG:http://metalarea.org/forum/style_images/flags/Croatia.png)
*Format: mp3@CBR128kbps (IMG:http://metalarea.org/images/bit_low.gif)
*Size: 19MB

Tracklist:
1. Union Mind Dead 03:17
2. Sense Of Life 05:46
3. Live Suffer Die 03:56
4. Hatred Inside 04:53
5. Final Destruction 04:01
******************************
Total playing time: 21:53

Technical info
(IMG:http://metalarea.org/images/spectrogram/2019_Feb/4afba437cc69bf2c3b251b401a4b1c34.png)
Input File: 02-Sense of Life.MP3
Channels : 2
Sample Rate : 44100
Precision : 16-bit
Duration : 00:05:46.55 = 15282723 samples = 25991 CDDA sectors
File Size : 5.55M
Bit Rate : 128k
Sample Encoding: MPEG audio (layer I, II or III)
Comments :
Artist=Amen (Cro)
Album=LSD - Live Suffer Die (Demo)
Tracknumber=02
Year=1994
Genre=Death Metal



Register


Go to the top of the page
  Insert nick Quick quote
+Quote Post

Reply to this topicStart new topic
1 User(s) are reading this topic (1 Guests and 0 Anonymous Users)
0 Members:

 



- Lo-Fi Version Support form
Copyrights and abuse reports form
Time is now: 19th August 2019 - 17:45:14