Welcome Guest ( Log In | Register )

> Capri Sancti - My Chim... Amoi Chim ...Always Chim [demo] (1994), Black Metal
post Feb 10 2019, 15:07:29
Post #1

Мегаманьяк
***********
Group: Металариец
Posts: 1,982
Releases: 36
On Forums: 1 year 8 months
Thanks: 4353 time(s)
Unknown


(IMG:https://metalarea.org/images/audiocovers/2019_Feb/acov_tid317396_thumb.jpg)

*Artist: Capri Sancti
*Album: My Chim... Amoi Chim ...Always Chim [demo]
*Year: 1994
*Genre: Black Metal
*Country: Poland (IMG:https://metalarea.org/forum/style_images/flags/Poland.png)
*Format: mp3@VBR201kbps
*Size: 21MB

Tracklist:
01.Wrepian Tream I. Nunluf Inlep Erusbo Kitnamor
02.Metop Trem
******************************
Total playing time: 12:29



Technical info
(IMG:https://metalarea.org/images/spectrogram/2019_Feb/882dd6153713275630182dc528d4b796.png)
Input File: 01 - Wrepian Tream I. Nunluf Inlep Erusbo Kitnamor.mp3
Channels : 2
Sample Rate : 44100
Precision : 16-bit
Duration : 00:09:28.69 = 25079009 samples = 42651.4 CDDA sectors
File Size : 14.2M
Bit Rate : 200k
Sample Encoding: MPEG audio (layer I, II or III)
Comments :
Title=Wrepian Tream
Artist=Capri Sancti
Album=My Chim... Amoi Chim ...Always Chim
Tracknumber=1
Year=1994
Genre=Black Metal



Register


Go to the top of the page
  Insert nick Quick quote
+Quote Post
 
Start new topic
Replies (1 - 1)
post Mar 10 2019, 12:41:54
Post #2

Мегаманьяк
***********
Group: Металариец
Posts: 1,526
Releases: 24
From: Spain
On Forums: 11 years 10 months
Thanks: 1202 time(s)
Spain


Thanks, on my wishlist for years
Go to the top of the page
  Insert nick Quick quote
+Quote Post

Reply to this topicStart new topic
2 User(s) are reading this topic (2 Guests and 0 Anonymous Users)
0 Members:

 



- Lo-Fi Version Support form
Copyrights and abuse reports form
Time is now: 18th July 2019 - 12:38:28