Welcome Guest ( Log In | Register )

> Gnaw Their Tongues - Kapmeswonden En Haatliederen (2019), Experimental Black Metal
post Feb 10 2019, 15:23:06
Post #1

the faceless one
Group Icon
Group: S-moderation team
Posts: 9,135
Releases: 1844
On Forums: 10 years 11 months
Thanks: 108718 time(s)
Russian Federation


(IMG:http://metalarea.org/images/audiocovers/2019_Feb/acov_tid317397_thumb.jpg)

*Artist: Gnaw Their Tongues
*Album: Kapmeswonden En Haatliederen
*Year: 2019
*Genre: Experimental Black Metal
*Country: Netherlands (IMG:http://metalarea.org/forum/style_images/flags/Netherlands.png)
*Format: mp3@CBR320kbps
*Size: 96MB

Tracklist:
1. Kapmeswonden En Haatliederen 04:14
2. I Recieve My Blessings From Knife-wielding Hands 03:50
3. Devoured By The Beasts Of Despair 06:04
4. Saddleworth Moor 05:11
5. Dag Des Oordeels 06:41
6. Schamel Leden 05:39
7. Cherub Liver 05:08
8. Kapmes 03:50
******************************
Total playing time: 40:37



Extended info
CDr limited to 100 copies.

Recorded between 2013 and 2018.

Абсолютная звуковая дезориентация, сотканная из деталей одержимой Вселенной Mories, музыка незавершённого гештальта, представленная побочными эффектами хроматических тем: какофония гортанных воплей, уничтожающих ударов и трепыхающихся в агонии зловещих искр всевозможных цифровых искажений. Пропасть шума и механизированного хаоса. Каждый трек начинается и заканчивается внезапно, воссоздавая непроницаемое пространство, необходимое для причинения страданий с последующим забвением, своеобразное кровавое пиршество прожорливых личинок, безжалостно поглощающих пронзительно кричащую живую плоть.


Technical info
(IMG:http://metalarea.org/images/spectrogram/2019_Feb/aaa5cfb8d0e9774d9164b6c1e860d0be.png)
Input File: 01 Kapmeswonden en Haatliederen.mp3
Channels : 2
Sample Rate : 44100
Precision : 16-bit
Duration : 00:04:14.13 = 11207265 samples = 19060 CDDA sectors
File Size : 10.2M
Bit Rate : 320k
Sample Encoding: MPEG audio (layer I, II or III)
Comments :
Title=Kapmeswonden en Haatliederen
Artist=Gnaw Their Tongues
Album=Kapmeswonden en Haatliederen
Tracknumber=1
Year=2019



Register


Go to the top of the page
  Insert nick Quick quote
+Quote Post
 
Start new topic
Replies (1 - 3)
post Feb 10 2019, 18:19:36
Post #2

antithesis
**************
Group: Металариец
Posts: 2,690
Releases: 30
From: VRN
On Forums: 9 years 1 month
Thanks: 1542 time(s)
Russian Federation


Каждый релиз от Мориса как леденящее кровь откровение. (IMG:style_emoticons/default/25.gif)


Thanks:
Go to the top of the page
  Insert nick Quick quote
+Quote Post
post Feb 10 2019, 19:01:00
Post #3

надёрганый по кусочкам
**************
Group: Металариец
Posts: 2,889
Releases: 0
On Forums: 3 years 5 months
Thanks: 1682 time(s)
Unknown


ЦИТАТА(Razorbladeswaltz @ 10th February 2019 - 22:19:36) *
Каждый релиз от Мориса как леденящее кровь откровение.

давно уже совсем наобормот.


Thanks:
(1) CryptOn,
Go to the top of the page
  Insert nick Quick quote
+Quote Post
post Feb 10 2019, 20:54:00
Post #4


**************
Group: Металариец
Posts: 2,001
Releases: 14
From: Казань
On Forums: 9 years 10 months
Thanks: 2567 time(s)
Russian Federation


Внешнее одеяние Вселенной может быть пустым настолько, насколько позволительно созерцающему лицезреть Ее. Только то, что хочет лицезреть. В какой нибудь из проекций сего музыкального изыска будет проецировано то, что страждущий воспримет в одном из его состояний. Доверься Ему. Взыграет Восторг, ужасающий и бесцеремонный - Насладись им. Как и Автор сего музыкального Ремесла. Если в душе твоей - горы пепла , не пытай себя, уже уставший и отстраненный. Найди отражение своей радости в тысяче других водоемов.
Морис совершил свою Джапу. Дело за слушателем.


Go to the top of the page
  Insert nick Quick quote
+Quote Post

Reply to this topicStart new topic
2 User(s) are reading this topic (2 Guests and 0 Anonymous Users)
0 Members:

 



- Lo-Fi Version Support form
Copyrights and abuse reports form
Time is now: 17th July 2019 - 13:33:39