Welcome Guest ( Log In | Register )

> Malignitas - Versunken Im Morast [ep] (2019), Raw Black Metal
post Feb 10 2019, 15:30:35
Post #1

Мегаманьяк
***********
Group: Металариец
Posts: 1,703
Releases: 1474
From: Одесса
On Forums: 10 years 10 months
Thanks: 12013 time(s)
Ukraine


(IMG:http://metalarea.org/images/audiocovers/2019_Feb/acov_tid317398_thumb.jpg)

*Artist: Malignitas
*Album: Versunken Im Morast [ep]
*Year: 2019
*Genre: Raw Black Metal
*Country: Germany (IMG:http://metalarea.org/forum/style_images/flags/Germany.png)
*Format: mp3@CBR320kbps
*Size: 43MB

Tracklist:
1. Vom Gedanken... 04:38
2. Versunken im Morast 04:01
3. Licht! 05:27
4. Leid und Elend 04:02
******************************
Total playing time: 18:08



Extended info
FLAC RIP


Technical info
(IMG:http://metalarea.org/images/spectrogram/2019_Feb/22aa3dd0025f9253b49e9de2942f7588.png)
Input File: 02. Versunken im Morast.mp3
Channels : 2
Sample Rate : 48000
Precision : 16-bit
Duration : 00:04:01.06 = 11570832 samples ~ 18079.4 CDDA sectors
File Size : 9.65M
Bit Rate : 320k
Sample Encoding: MPEG audio (layer I, II or III)
Comments :
Title=Versunken im Morast
Artist=Malignitas
Album=Versunken im Morast (EP)
Tracknumber=2
Year=2019
Genre=Raw Black Metal



Register


Go to the top of the page
  Insert nick Quick quote
+Quote Post
 
Start new topic
Replies (1 - 1)
post Feb 10 2019, 18:34:56
Post #2

I hate you all
***********
Group: Металариец
Posts: 1,962
Releases: 74
From: Ukraine
On Forums: 11 years 11 months
Thanks: 4873 time(s)
Ukraine


Go to the top of the page
  Insert nick Quick quote
+Quote Post

Reply to this topicStart new topic
1 User(s) are reading this topic (1 Guests and 0 Anonymous Users)
0 Members:

 



- Lo-Fi Version Support form
Copyrights and abuse reports form
Time is now: 24th April 2019 - 13:05:37