Welcome Guest ( Log In | Register )

> Правила / Rules

Тут только для чтения лежат низкобитрейтные (<192kbps) релизы, для которых есть аналоги в высокобитрейтных форумах.

Here goes (and stand in read only mode) low bitrate releases (<192kbps) which were already replaced by high bitrate releases in corresponding forums.

> Ravager - Thrashletics (2019), Old School Thrash Metal (D4)
post Feb 10 2019, 16:46:46
Post #1

Аннигилятор пивА
Group Icon
Group: V.I.P
Posts: 52,354
Releases: 16557
From: Koenigsberg - TILZIT
On Forums: 12 years 10 months
Thanks: 360362 time(s)
Russian Federation


(IMG:https://metalarea.org/images/audiocovers/2019_Feb/acov_tid317401_thumb.jpg)

*Artist: Ravager
*Album: Thrashletics
*Year: 2019
*Genre: Old School Thrash Metal
*Country: Germany (IMG:https://metalarea.org/forum/style_images/flags/Germany.png)
*Format: mp3@CBR128kbps (IMG:https://metalarea.org/images/bit_low.gif)
*Size: 38MB

Tracklist:
1. Descending Dawn
2. Mindblender
3. Thrashletics (Out Of Hell)
4. Society Of Blunted State
5. Dysphoria
6. Slaughter Of Innocents
7. Pit Stop … Don’t Stop In The Pit!
8. Kill For Nothing
9. Dead Future
******************************
Total playing time: 40:56



Extended info
André Sawade Bass (2014-2015), Drums (2015-present) See also: ex-Excavator
Marcel Lehr Guitars (2014-present) See also: ex-Excavator
Dario Guitars (2014-present) See also: ex-Putrefaction (live)
Phipsi Vocals (2014-present)
Justus Mahler Bass (2015-present)


Technical info
(IMG:https://metalarea.org/images/spectrogram/2019_Feb/d2c2ba035ff95e5a5ad9cef19974ce08.png)
Input File: 02. Mindblender.mp3
Channels : 2
Sample Rate : 44100
Precision : 16-bit
Duration : 00:04:07.07 = 10895831 samples = 18530.3 CDDA sectors
File Size : 3.96M
Bit Rate : 128k
Sample Encoding: MPEG audio (layer I, II or III)
Comments :
Title=Mindblender
Artist=Ravager
Album=Thrashletics
Tracknumber=2
Year=2019



Register


Go to the top of the page
  Insert nick Quick quote
+Quote Post
 
Start new topic
Replies (1 - 2)
post Feb 10 2019, 17:28:01
Post #2

Аннигилятор пивА
Group Icon
Group: V.I.P
Posts: 52,354
Releases: 16557
From: Koenigsberg - TILZIT
On Forums: 12 years 10 months
Thanks: 360362 time(s)
Russian Federation


MIRROR
Register






Thanks:
(1) boby9052,
Go to the top of the page
  Insert nick Quick quote
+Quote Post
post Feb 10 2019, 17:44:09
Post #3

Full-of-Hate
**************
Group: Металариец
Posts: 2,833
Releases: 0
From: Moscow
On Forums: 9 years 9 months
Thanks: 2078 time(s)
Russian Federation


В поисках свежей музыки за 2019 год наткнулся на сабжевый ВИА.

Обложка позабавила ни то черепашкой ниндзя на стеройдах, ни то годзиллой в кедах. Что хотели изобразить не ясно, по не смотря на несуразность артворка материал очень даже стоящий. По музыке - надуманный олдскул, но энергичный и живо звучащий. Немного раздражает поджевывающий вокал, "переигрывающий" с экспрессией. Многочисленным любителям Thrash на портале должно прийтись по вкусу.


Thanks:
(1) Foneg,
Go to the top of the page
  Insert nick Quick quote
+Quote Post

Причина закрытия (DarkHorde 14-02-2019): Ravager - Thrashletics (2019)
Closed TopicStart new topic
1 User(s) are reading this topic (1 Guests and 0 Anonymous Users)
0 Members:

 



- Lo-Fi Version Support form
Copyrights and abuse reports form
Time is now: 24th April 2019 - 12:51:00