Welcome Guest ( Log In | Register )

 
Reply to this topicStart new topic
> Zivatar - When Leaves Fall And Cold Winds Come (2018), Doom/Death Metal
post Feb 10 2019, 16:52:05
Post #1

Три Литра
***
Group: Завсегдатай
Posts: 266
Releases: 163
On Forums: 10 years 4 months
Thanks: 1619 time(s)
Russian Federation


(IMG:https://metalarea.org/images/audiocovers/2019_Feb/acov_tid317402_thumb.jpg)

*Artist: Zivatar
*Album: When Leaves Fall And Cold Winds Come
*Year: 2018
*Genre: Doom/Death Metal
*Country: Hungary (IMG:https://metalarea.org/forum/style_images/flags/Hungary.png)
*Format: mp3@CBR320kbps
*Size: 96MB

Tracklist:
01. A Heart Whose Love 08:52
02. Like The Sun From A Wintry Sky 11:03
03. Her Hair Was Red 02:13
04. While She Lies Sleeping... And The Moonbeams Kiss The Sea 09:08
05. As A White Candle 04:03
06. My Last Sleep 06:25
******************************
Total playing time: 41:44



Technical info
(IMG:https://metalarea.org/images/spectrogram/2019_Feb/8bc6ee34a37980871ab44cc9c28e5039.png)
Input File: 01 - A Heart Whose Love.mp3
Channels : 2
Sample Rate : 44100
Precision : 16-bit
Duration : 00:08:52.09 = 23465345 samples = 39907 CDDA sectors
File Size : 21.4M
Bit Rate : 322k
Sample Encoding: MPEG audio (layer I, II or III)
Comments :
Title=A Heart Whose Love
Artist=ZIVATAR
Album=When Leaves Fall And Cold Winds Come
Tracknumber=1
Year=2018



Register


Go to the top of the page
  Insert nick Quick quote
+Quote Post

Reply to this topicStart new topic
2 User(s) are reading this topic (2 Guests and 0 Anonymous Users)
0 Members:

 



- Lo-Fi Version Support form
Copyrights and abuse reports form
Time is now: 18th July 2019 - 11:55:15