Welcome Guest ( Log In | Register )

> Hexengrab - Schrei Der Sirenen [demo] (2018), Black Metal
post Feb 10 2019, 17:19:37
Post #1

Мегаманьяк
***********
Group: Металариец
Posts: 1,725
Releases: 1365
From: Prešov
On Forums: 5 years 3 months
Thanks: 32852 time(s)
Slovakia


(IMG:http://metalarea.org/images/audiocovers/2019_Feb/acov_tid317403_thumb.jpg)

*Artist: Hexengrab
*Album: Schrei Der Sirenen [demo]
*Year: 2018
*Genre: Black Metal
*Country: Germany (IMG:http://metalarea.org/forum/style_images/flags/Germany.png)
*Format: mp3@CBR320kbps
*Size: 57MB

Tracklist:
1. Einmarsch 01:40
2. Luftkrieg 05:16
3. Flammenwerfer 05:23
4. Trommelfeuer 07:04
5. Schrei der Sirenen 04:58
******************************
Total playing time: 24:21



Extended info
Narbentage Produktionen - NT-CD 3


Technical info
(IMG:http://metalarea.org/images/spectrogram/2019_Feb/84c65f7d5ba78429c0b6a5fb71440a58.png)
Input File: 02. Luftkrieg.mp3
Channels : 2
Sample Rate : 44100
Precision : 16-bit
Duration : 00:05:18.90 = 14063358 samples = 23917.3 CDDA sectors
File Size : 12.8M
Bit Rate : 321k
Sample Encoding: MPEG audio (layer I, II or III)
Comments :
Title=Luftkrieg
Artist=Hexengrab
Album=Schrei der Sirenen
Tracknumber=02/05
Year=2018
Genre=Black Metal
Discnumber=1/1



Register


Go to the top of the page
  Insert nick Quick quote
+Quote Post
 
Start new topic
Replies (1 - 4)
post Feb 10 2019, 17:23:35
Post #2

the faceless one
Group Icon
Group: S-moderation team
Posts: 9,135
Releases: 1844
On Forums: 10 years 11 months
Thanks: 108718 time(s)
Russian Federation


Register


Go to the top of the page
  Insert nick Quick quote
+Quote Post
post Feb 10 2019, 18:19:24
Post #3

While Waiting the Worms
********
Group: Металариец
Posts: 830
Releases: 0
On Forums: 5 years 6 months
Thanks: 1118 time(s)
Unknown


Давно я такого стаффа не слышал.
Без диссонансов, без ритуальщины, без экспериментов, без задpoтской техники, без заездов в другие стили и без каких-либо изысков вообще.
Атмосферный монотонный ураган злобы.

Похоже на Mysticum без грибов и электроники.


Go to the top of the page
  Insert nick Quick quote
+Quote Post
post Feb 12 2019, 14:17:05
Post #4

Правь статус, ####!111
**************
Group: Металариец
Posts: 2,497
Releases: 3
From: Dnipro
On Forums: 11 years 3 days
Thanks: 677 time(s)
Ukraine


Стандартная хромающая на обе ноги в плане реализации андеграундная немецкая хреновина.
Go to the top of the page
  Insert nick Quick quote
+Quote Post
post Feb 12 2019, 17:05:10
Post #5

De Mysteriis Dom Sathanas
**************
Group: Металариец
Posts: 3,579
Releases: 63
From: Москва
On Forums: 11 years 2 days
Thanks: 3020 time(s)
Russian Federation


ЦИТАТА(isvili @ Feb 12 2019, 16:17:05) *
Стандартная хромающая на обе ноги в плане реализации андеграундная немецкая хреновина.

Тоже так себе...очередная ван-мэн банда с электронными ударными и невыразительным однообразным саундом
Go to the top of the page
  Insert nick Quick quote
+Quote Post

Reply to this topicStart new topic
2 User(s) are reading this topic (2 Guests and 0 Anonymous Users)
0 Members:

 



- Lo-Fi Version Support form
Copyrights and abuse reports form
Time is now: 17th July 2019 - 14:07:00