Welcome Guest ( Log In | Register )

> In-Sight - Enlightened By Shadows (2019), Melodic Death Metal
post Feb 10 2019, 18:46:36
Post #1

Аннигилятор пивА
Group Icon
Group: V.I.P
Posts: 52,356
Releases: 16556
From: Koenigsberg - TILZIT
On Forums: 13 years 1 month
Thanks: 361403 time(s)
Russian Federation


(IMG:https://metalarea.org/images/audiocovers/2019_Feb/acov_tid317406_thumb.jpg)

*Artist: In-Sight
*Album: Enlightened By Shadows
*Year: 2019
*Genre: Melodic Death Metal
*Country: Italy (IMG:https://metalarea.org/forum/style_images/flags/Italy.png)
*Format: mp3@CBR320kbps
*Size: 88MB

Tracklist:
01. Echoes
02. Confined
03. Pit of Snakes
04. Dawn of Redemption
05. My Own Path
06. Woods of Misery
07. Blank Horizons
08. Inner Sight
09. Inner Voice
10. No End
******************************
Total playing time: 37:57




Extended info
Maurizio - Vocals
Paolo - Guitar
Aron - Guitar
Roberto "il Berna" - Bass
Mek - Drums


Technical info
(IMG:https://metalarea.org/images/spectrogram/2019_Feb/08c0dfb5c267ab028c173db8cd41392e.png)
Input File: 2 - Confined.mp3
Channels : 2
Sample Rate : 44100
Precision : 16-bit
Duration : 00:04:09.40 = 10998716 samples = 18705.3 CDDA sectors
File Size : 10.1M
Bit Rate : 323k
Sample Encoding: MPEG audio (layer I, II or III)
Comments :
Title=Confined
Artist=In-Sight
Album=Enlightened by Shadows
Tracknumber=2
Year=2019
Genre=MDM
Discnumber=1



Register


Go to the top of the page
  Insert nick Quick quote
+Quote Post
 
Start new topic
Replies (1 - 3)
post Feb 10 2019, 20:19:45
Post #2

Аннигилятор пивА
Group Icon
Group: V.I.P
Posts: 52,356
Releases: 16556
From: Koenigsberg - TILZIT
On Forums: 13 years 1 month
Thanks: 361403 time(s)
Russian Federation


mirror
Register



Go to the top of the page
  Insert nick Quick quote
+Quote Post
post Feb 12 2019, 14:11:58
Post #3

Правь статус, ####!111
**************
Group: Металариец
Posts: 2,497
Releases: 3
From: Dnipro
On Forums: 11 years 3 days
Thanks: 677 time(s)
Ukraine


Go to the top of the page
  Insert nick Quick quote
+Quote Post
post Feb 13 2019, 16:11:37
Post #4

Ъ
**************
Group: Металариец
Posts: 9,587
Releases: 9
On Forums: 10 years 6 months
Thanks: 1866 time(s)
Sweden


Третьесорт.
Go to the top of the page
  Insert nick Quick quote
+Quote Post

Reply to this topicStart new topic
2 User(s) are reading this topic (2 Guests and 0 Anonymous Users)
0 Members:

 



- Lo-Fi Version Support form
Copyrights and abuse reports form
Time is now: 17th July 2019 - 13:40:44