Welcome Guest ( Log In | Register )

 
Reply to this topicStart new topic
> Ecliptica - Resiliens [ep] (2010), Heavy/Power Metal (D5)
post Feb 10 2019, 20:40:18
Post #1

BlaSk MetaliK
**************
Group: Металариец
Posts: 2,012
Releases: 305
From: Ա-շիրիմ
On Forums: 10 years 1 month
Thanks: 5580 time(s)
Armenia


(IMG:https://metalarea.org/images/audiocovers/2019_Feb/acov_tid317409_thumb.jpg)

*Artist: Ecliptica
*Album: Resiliens [ep]
*Year: 2010
*Genre: Heavy/Power Metal
*Country: Uruguay (IMG:https://metalarea.org/forum/style_images/flags/Uruguay.png)
*Format: mp3@CBR320kbps
*Size: 50MB

Tracklist:
1. Ab Initio Ad Eternum
2. Abismo
3. Enfrentando El Destino
4. Reflexion
5. Mas Alla De Los Sueños
6. Oscura Agonía
******************************
Total playing time: 22:45

Technical info
(IMG:https://metalarea.org/images/spectrogram/2019_Feb/e0a2f1b765c3aedc86bab8b1bd8d1d90.png)
Input File: 03 Enfrentando El Destino.mp3
Channels : 2
Sample Rate : 44100
Precision : 16-bit
Duration : 00:04:42.63 = 12463807 samples = 21197 CDDA sectors
File Size : 11.3M
Bit Rate : 320k
Sample Encoding: MPEG audio (layer I, II or III)
Comments :
Title=Enfrentando El Destino
Artist=Ecliptica
Album=Resiliens EP
Tracknumber=3
Year=2010
Genre=Heavy Metal



Register


Thanks:
(2) gwar, Rosen,
Go to the top of the page
  Insert nick Quick quote
+Quote Post

Reply to this topicStart new topic
1 User(s) are reading this topic (1 Guests and 0 Anonymous Users)
0 Members:

 



- Lo-Fi Version Support form
Copyrights and abuse reports form
Time is now: 17th August 2019 - 18:38:39