Welcome Guest ( Log In | Register )

> Releases Upload / Добавление релизов

Добавить релиз тут / Click here to add release
Рекомендованные обменники / Recommended file shares

 
Reply to this topicStart new topic
> Hollowed - Shattered [ep] (2019), Groove/Thrash Metal
post Feb 10 2019, 21:48:52
Post #1

Правь статус, ####!111
**************
Group: Металариец
Posts: 16,008
Releases: 10862
From: Г.Харьков
On Forums: 6 years 9 months
Thanks: 180735 time(s)
Unknown


(IMG:https://metalarea.org/images/audiocovers/2019_Feb/acov_tid317410_thumb.jpg)

*Artist: Hollowed
*Album: Shattered [ep]
*Year: 2019
*Genre: Groove/Thrash Metal
*Country: Germany (IMG:https://metalarea.org/forum/style_images/flags/Germany.png)
*Format: mp3@CBR320kbps
*Size: 59MB

Tracklist:
1. Slave Becomes a King 06:25
2. Shattered 06:03
3. Sick Society 03:44
4. Anxiety 04:41
5. These Scars 04:22
******************************
Total playing time: 25:15




Extended info
Andy Bass
Tom Drums
Josch Guitars (rhythm)
Fight Vocals
Ivan Guitars (lead)


Technical info
(IMG:https://metalarea.org/images/spectrogram/2019_Feb/b0a978996697ae638adefe825df85d9c.png)
Input File: 02 - Shattered.mp3
Channels : 2
Sample Rate : 44100
Precision : 16-bit
Duration : 00:06:03.44 = 16027484 samples = 27257.6 CDDA sectors
File Size : 14.7M
Bit Rate : 323k
Sample Encoding: MPEG audio (layer I, II or III)
Comments :
Title=Shattered
Artist=Hollowed
Album=Shattered
Tracknumber=2
Year=2019
Genre=Metal
Discnumber=1



Register


Go to the top of the page
  Insert nick Quick quote
+Quote Post

Reply to this topicStart new topic
2 User(s) are reading this topic (2 Guests and 0 Anonymous Users)
0 Members:

 



- Lo-Fi Version Support form
Copyrights and abuse reports form
Time is now: 19th February 2019 - 17:54:44