Welcome Guest ( Log In | Register )

 
Reply to this topicStart new topic
> Bray Road - Formation [ep] (2019), Old School Thrash Metal
post Feb 11 2019, 04:24:25
Post #1

Правь статус, ####!111
**************
Group: Металариец
Posts: 18,127
Releases: 12260
From: Г.Харьков
On Forums: 7 years 3 months
Thanks: 206618 time(s)
Unknown


(IMG:https://metalarea.org/images/audiocovers/2019_Feb/acov_tid317412_thumb.jpg)

*Artist: Bray Road
*Album: Formation [ep]
*Year: 2019
*Genre: Old School Thrash Metal
*Country: United States (IMG:https://metalarea.org/forum/style_images/flags/United%20States.png)
*Format: mp3@CBR320kbps
*Size: 56MB

Tracklist:
1. Sometimes At Night
2. Formation
3. Bloodgutter
4. Ties That Bind
5. Ten Faced Human Waste
6. State Of Execution
******************************
Total playing time: 23:48



Extended info
Nino Nienas Vocals, Guitars
Mike Aschenbrenner Bass
Rob Pearson Guitars
Peter Kissane Drums


Technical info
(IMG:https://metalarea.org/images/spectrogram/2019_Feb/bea6c6ae30abc81109d3bd2747c35af2.png)
Input File: 03 - Bloodgutter.mp3
Channels : 2
Sample Rate : 44100
Precision : 16-bit
Duration : 00:05:24.01 = 14289017 samples = 24301 CDDA sectors
File Size : 13.1M
Bit Rate : 323k
Sample Encoding: MPEG audio (layer I, II or III)
Comments :
Title=Bloodgutter
Artist=Bray Road
Album=Formation
Tracknumber=3
Year=2019
Genre=Metal
Discnumber=1



Register


Go to the top of the page
  Insert nick Quick quote
+Quote Post

Reply to this topicStart new topic
1 User(s) are reading this topic (1 Guests and 0 Anonymous Users)
0 Members:

 



- Lo-Fi Version Support form
Copyrights and abuse reports form
Time is now: 19th August 2019 - 18:28:06