Welcome Guest ( Log In | Register )

 
Reply to this topicStart new topic
> Narph - Unfold (2019), Progressive Heavy/Thrash Metal
post Feb 11 2019, 04:40:13
Post #1

Правь статус, ####!111
**************
Group: Металариец
Posts: 19,046
Releases: 12853
From: Г.Харьков
On Forums: 7 years 5 months
Thanks: 220464 time(s)
Unknown


(IMG:https://metalarea.org/images/audiocovers/2019_Feb/acov_tid317413_thumb.jpg)

*Artist: Narph
*Album: Unfold
*Year: 2019
*Genre: Progressive Heavy/Thrash Metal
*Country: Germany (IMG:https://metalarea.org/forum/style_images/flags/Germany.png)
*Format: mp3@CBR320kbps
*Size: 151MB

Tracklist:
1. Intro
2. Beyond
3. Doomed To Fail
4. Hope & Salvation
5. Hate & Oppression
6. Sublime
7. Imperial
8. Vision
9. Drake
10. Playground
11. Observer
12. Dawn
13. Light Heart
14. Night
15. Father The Lights
******************************
Total playing time: 1:05:26



Extended info
Matti Narph - Vocals und Gitarre
Matthias Narph - Gitarre
Andre Narph- Bass
Jens Narph - Drums


Technical info
(IMG:https://metalarea.org/images/spectrogram/2019_Feb/42ebfa4b557270907162cb1cc6b76368.png)
Input File: 07 - Imperial.mp3
Channels : 2
Sample Rate : 44100
Precision : 16-bit
Duration : 00:04:08.91 = 10976843 samples = 18668.1 CDDA sectors
File Size : 10.1M
Bit Rate : 324k
Sample Encoding: MPEG audio (layer I, II or III)
Comments :
Title=Imperial
Artist=Narph
Album=Unfold
Tracknumber=7
Year=2019



Register


Go to the top of the page
  Insert nick Quick quote
+Quote Post

Reply to this topicStart new topic
1 User(s) are reading this topic (1 Guests and 0 Anonymous Users)
0 Members:

 



- Lo-Fi Version Support form
Copyrights and abuse reports form
Time is now: 18th October 2019 - 12:24:40