Welcome Guest ( Log In | Register )

 
Reply to this topicStart new topic
> Tiwaz Borealis - Schild An Schild [ep] (2019), Pagan Folk Metal
post Feb 11 2019, 05:20:14
Post #1

Правь статус, ####!111
**************
Group: Металариец
Posts: 16,629
Releases: 11293
From: Г.Харьков
On Forums: 6 years 11 months
Thanks: 188180 time(s)
Unknown


(IMG:https://metalarea.org/images/audiocovers/2019_Feb/acov_tid317414_thumb.jpg)

*Artist: Tiwaz Borealis
*Album: Schild An Schild [ep]
*Year: 2019
*Genre: Pagan Folk Metal
*Country: Germany (IMG:https://metalarea.org/forum/style_images/flags/Germany.png)
*Format: mp3@CBR320kbps
*Size: 55MB

Tracklist:
1. Nebelwall 04:03
2. Entrolled 03:13
3. Schild an Schild 05:43
4. Draugr 03:49
5. Celtic Dawn 03:37
6. Nach siegreicher Schlacht 02:51
******************************
Total playing time: 23:16




Extended info
Paul Martens Bass
Viva Goll Drums
Marius Tripke Flute
Tobias Bo Guitars
Timo Schulz Guitars, Vocals
See also: Death Comes in Waves, Sanity's Eclipse


Technical info
(IMG:https://metalarea.org/images/spectrogram/2019_Feb/79c12c481d126ae497042699c2334db5.png)
Input File: 03 - Schild an Schild.mp3
Channels : 2
Sample Rate : 44100
Precision : 16-bit
Duration : 00:05:43.84 = 15163432 samples = 25788.1 CDDA sectors
File Size : 13.9M
Bit Rate : 324k
Sample Encoding: MPEG audio (layer I, II or III)
Comments :
Title=Schild an Schild
Artist=Tiwaz Borealis
Album=Schild an Schild
Tracknumber=3
Year=2019
Genre=Metal
Discnumber=1



Register


Go to the top of the page
  Insert nick Quick quote
+Quote Post

Reply to this topicStart new topic
1 User(s) are reading this topic (1 Guests and 0 Anonymous Users)
0 Members:

 



- Lo-Fi Version Support form
Copyrights and abuse reports form
Time is now: 18th April 2019 - 13:18:07