Welcome Guest ( Log In | Register )

> Releases Upload / Добавление релизов

Добавить релиз тут / Click here to add release
Рекомендованные обменники / Recommended file shares

> Genetic Disease - Eternal Emptiness (2019), Technical Death Metal/Deathcore
post Feb 11 2019, 06:25:02
Post #1

Правь статус, ####!111
**************
Group: Металариец
Posts: 16,008
Releases: 10865
From: Г.Харьков
On Forums: 6 years 9 months
Thanks: 180741 time(s)
Unknown


(IMG:https://metalarea.org/images/audiocovers/2019_Feb/acov_tid317418_thumb.jpg)

*Artist: Genetic Disease
*Album: Eternal Emptiness
*Year: 2019
*Genre: Technical Death Metal/Deathcore
*Country: Mexico (IMG:https://metalarea.org/forum/style_images/flags/Mexico.png)
*Format: mp3@CBR320kbps
*Size: 55MB

Tracklist:
1. Slaves Of Misery
2. Before Their Tear You Apart
3. Fog
4. Child Of The Moon
5. Unearthly Punishment
6. Dragging Oblivion
******************************
Total playing time: 23:37



Extended info
Pablo - Vocals
Ricardo - Guitar
Adrian - Guitar
Ivan - Drums
Alan - Bass


Technical info
(IMG:https://metalarea.org/images/spectrogram/2019_Feb/eaafbf1b1f09c7430b888fd630368fff.png)
Input File: 03 - Fog.mp3
Channels : 2
Sample Rate : 44100
Precision : 16-bit
Duration : 00:03:58.88 = 10534432 samples = 17915.7 CDDA sectors
File Size : 9.73M
Bit Rate : 326k
Sample Encoding: MPEG audio (layer I, II or III)
Comments :
Title=Fog
Artist=Genetic Disease
Album=Eternal Emptiness
Tracknumber=3
Year=2019



Register


Go to the top of the page
  Insert nick Quick quote
+Quote Post
 
Start new topic
Replies (1 - 1)
post Feb 11 2019, 16:01:50
Post #2

тебе 28, а ты все реверсами балуешься
***********
Group: Металариец
Posts: 1,556
Releases: 4
On Forums: 10 years 6 months
Thanks: 404 time(s)
Russian Federation


Стереотипная современная дристня без изюминки - берём брейки и битдауны, пока там дроп цэ звучит, пускаем фоном клавишки и делаем буль буль и бри бри.
Можно же сделать интереснее, как например Betraying the Martyrs.


Thanks:
(1) AHBAnep,
Go to the top of the page
  Insert nick Quick quote
+Quote Post

Reply to this topicStart new topic
2 User(s) are reading this topic (2 Guests and 0 Anonymous Users)
0 Members:

 



- Lo-Fi Version Support form
Copyrights and abuse reports form
Time is now: 19th February 2019 - 18:43:01