Welcome Guest ( Log In | Register )

> Centurion - Genetical Breakdown (2003), Power/Thrash Metal (D4)
post Feb 11 2019, 09:54:07
Post #1

Join my religion, or die
**************
Group: Металариец
Posts: 10,153
Releases: 1355
From: Питера
On Forums: 9 years 6 months
Thanks: 17475 time(s)
Russian Federation


(IMG:http://metalarea.org/images/audiocovers/2019_Feb/acov_tid317421_thumb.jpg)

*Artist: Centurion
*Album: Genetical Breakdown
*Year: 2003
*Genre: Power/Thrash Metal
*Country: Venezuela (IMG:http://metalarea.org/forum/style_images/flags/Venezuela.png)
*Format: mp3@CBR320kbps
*Size: 105MB

Tracklist:
01. Back to the Roots (Intro)
02. The Illuminated
03. Genetical Breakdown
04. Influences
05. Disagreements
06. Hero in Disgrace
07. Psycho Man
08. Dark Forest of Pain
09. Spirit of Freedom
******************************
Total playing time: 25:41

Extended info
Отличный альбом! Очень оригинальный. С насыщеными клавишами.
Дикой мешаниной стилей. Стоит послушать!



Technical info
(IMG:http://metalarea.org/images/spectrogram/2019_Feb/69565211235e7a5f3f3232bd8a701407.png)
Input File: 01 Back To The Roots-The Illuminated.mp3
Channels : 2
Sample Rate : 44100
Precision : 16-bit
Duration : 00:08:03.48 = 21321380 samples = 36260.9 CDDA sectors
File Size : 19.5M
Bit Rate : 322k
Sample Encoding: MPEG audio (layer I, II or III)
Comments :
Title=The Illuminated
Artist=Centurion
Album=2003 Genetical Breakdown
Tracknumber=01/08
Year=2003
Genre=Thrash Metal



Register


Thanks:
Go to the top of the page
  Insert nick Quick quote
+Quote Post
 
Start new topic
Replies (1 - 1)
post Feb 11 2019, 15:42:56
Post #2

Join my religion, or die
**************
Group: Металариец
Posts: 10,153
Releases: 1355
From: Питера
On Forums: 9 years 6 months
Thanks: 17475 time(s)
Russian Federation


Yandex
Register




Thanks:
(2) boby9052, gwar,
Go to the top of the page
  Insert nick Quick quote
+Quote Post

Reply to this topicStart new topic
1 User(s) are reading this topic (1 Guests and 0 Anonymous Users)
0 Members:

 



- Lo-Fi Version Support form
Copyrights and abuse reports form
Time is now: 24th April 2019 - 01:24:53